Filmbol Forum Film İndir FHD - FULL HD v Arctic (Arctic) - 2018 - TR+ORG - FHD - x264 | tt6820256

Premium Üyelik Al

Bildirimi Kapat
Mega linklerinin şikayet edilmemesi için global erişime kapatıp sadece yorum yapanlara açıyoruz. Bu linkleri gizleme işlemini mecburen yapıyoruz ve yorum yapmanızın siteye değil size faydası vardır. Teşekkürler yazmayı çok görüp, Random/Spam/Anlamsız mesajlar atarak forumu kirletip Mega linklerini açmaya çalışan kullanıcılara süresiz ban atacağız.


Arctic (Arctic) - 2018 - TR+ORG - FHD - x264 | tt6820256
BroserBros
Arctic (Arctic) - 2018 - TR+ORG - FHD - x264 | tt6820256
0
6
  • Derecelendirme: 0/5 - 0 oy
  • 1
  • 2
  • 3
  • 4
  • 5
Konuyu Okuyanlar:1 Ziyaretçi
Şuan Online!
Filmin Yayınlanma Tarihi: 2018 
WWW
Şuan Online!
BroserBros Kurucu Admin
*******
Admin



 Arctic



Arctic, zorlu doğa koşullarında hayatta kalmaya çalışan bir adamın hikayesini anlatıyor. Genç bir adam olan Overgård’ın hayatı, çıktığı uçak yolculuğundan sonra alt üst olur. Overgård’ın uçağı, kutup bölgesinden geçtikleri sırada düşer. Uçaktan sağ çıkmayı başaran Overgård’ın, ekiplerin gelip kendisini kurtarmasını beklemekten başka çaresi yoktur. Bu süreçte çetin hava koşullarından korunmak için kendisine sığınacak bir yer yapar. Kurtarılmasına az bir zaman kala yaşanan trajik bir kaza Overgård’ın kurtarılma şansını yok eder. Hiçliğin ortasında, sert doğa koşulları ile başbaşa kalan Overgard’ın önünde iki seçenek vardı. Ya görece güvenli olan sığınağında kalıp amansız doğa felaketlerinden kendisini koruyacak ya da sonunu bilmediği ölümcül bir yolculuğa çıkacaktır.

Arctic (2018) (Arctic) | tt6820256 Filmi Imdb'den 50,000 kişi tarafından oylandı ve 6,8 puan aldı. Bu film için editör puanı %76 olarak belirlendi. İyi Seyirler!

Teknik Detaylar

Kod :
General
Unique ID                                : 159796420556406471323512810335034673289 (0x7837ABCF8A0D87441F87D17F62700889)
Complete name                            : /home/BroserBros/Desktop/1/Arctic.2018.FHD.BluRay.x264.TR.ENG.Filmbol.mkv
Format                                  : Matroska
Format version                          : Version 4
File size                                : 7.78 GiB
Duration                                : 1 h 38 min
Overall bit rate                        : 11.4 Mb/s
Movie name                              : Arctic - 2018 | Filmbol.org
Encoded date                            : UTC 2021-06-04 13:28:11
Writing application                      : mkvmerge v53.0.0 ('Fool's Gold') 64-bit
Writing library                          : libebml v1.4.1 + libmatroska v1.6.2

Video
ID                                      : 1
Format                                  : AVC
Format/Info                              : Advanced Video Codec
Format profile                          : [email protected]
Format settings                          : CABAC / 5 Ref Frames
Format settings, CABAC                  : Yes
Format settings, Reference frames        : 5 frames
Codec ID                                : V_MPEG4/ISO/AVC
Duration                                : 1 h 38 min
Bit rate                                : 9 657 kb/s
Width                                    : 1 920 pixels
Height                                  : 808 pixels
Display aspect ratio                    : 2.40:1
Frame rate mode                          : Constant
Frame rate                              : 23.976 (24000/1001) FPS
Color space                              : YUV
Chroma subsampling                      : 4:2:0
Bit depth                                : 8 bits
Scan type                                : Progressive
Bits/(Pixel*Frame)                      : 0.260
Stream size                              : 6.61 GiB (85%)
Title                                    : FHD - Filmbol.org
Writing library                          : x264 core 157 r2969 d4099dd
Encoding settings                        : cabac=1 / ref=5 / deblock=1:-3:-3 / analyse=0x3:0x113 / me=umh / subme=8 / psy=1 / psy_rd=1.00:0.00 / mixed_ref=1 / me_range=16 / chroma_me=1 / trellis=1 / 8x8dct=1 / cqm=0 / deadzone=21,11 / fast_pskip=1 / chroma_qp_offset=-2 / threads=24 / lookahead_threads=4 / sliced_threads=0 / nr=0 / decimate=1 / interlaced=0 / bluray_compat=0 / constrained_intra=0 / bframes=3 / b_pyramid=2 / b_adapt=1 / b_bias=0 / direct=3 / weightb=1 / open_gop=0 / weightp=2 / keyint=250 / keyint_min=23 / scenecut=40 / intra_refresh=0 / rc_lookahead=50 / rc=2pass / mbtree=1 / bitrate=9657 / ratetol=1.0 / qcomp=0.60 / qpmin=0 / qpmax=69 / qpstep=4 / cplxblur=20.0 / qblur=0.5 / ip_ratio=1.40 / aq=1:1.00
Language                                : English
Default                                  : Yes
Forced                                  : No

Audio #1
ID                                      : 2
Format                                  : AC-3
Format/Info                              : Audio Coding 3
Commercial name                          : Dolby Digital
Codec ID                                : A_AC3
Duration                                : 1 h 38 min
Bit rate mode                            : Constant
Bit rate                                : 192 kb/s
Channel(s)                              : 2 channels
Channel layout                          : L R
Sampling rate                            : 48.0 kHz
Frame rate                              : 31.250 FPS (1536 SPF)
Compression mode                        : Lossy
Stream size                              : 135 MiB (2%)
Title                                    : Türkçe - Filmbol.org
Language                                : Turkish
Service kind                            : Complete Main
Default                                  : Yes
Forced                                  : No

Audio #2
ID                                      : 3
Format                                  : DTS
Format/Info                              : Digital Theater Systems
Codec ID                                : A_DTS
Duration                                : 1 h 38 min
Bit rate mode                            : Constant
Bit rate                                : 1 509 kb/s
Channel(s)                              : 6 channels
Channel layout                          : C L R Ls Rs LFE
Sampling rate                            : 48.0 kHz
Frame rate                              : 93.750 FPS (512 SPF)
Bit depth                                : 24 bits
Compression mode                        : Lossy
Stream size                              : 1.03 GiB (13%)
Title                                    : Orijinal Dil - Filmbol.org
Language                                : English
Default                                  : No
Forced                                  : No

Text
ID                                      : 4
Format                                  : UTF-8
Codec ID                                : S_TEXT/UTF8
Codec ID/Info                            : UTF-8 Plain Text
Duration                                : 1 h 31 min
Bit rate                                : 3 b/s
Count of elements                        : 131
Stream size                              : 2.43 KiB (0%)
Title                                    : Türkçe - Filmbol.org
Language                                : Turkish
Default                                  : No
Forced                                  : No

Film Detayları


 Arctic

 Arctic

 Arctic


Film Fragmanı


Film Detayları

Mega linki şuan da gizli. Kullanıma açmak için konuya yorum yapın ve ardından sayfayı yenileyin.

Mega


Bunun için üzgünüz ancak, bu linke sadece premium üyeler erişebilir.

Filmbol Cloud







Hızlı Menü: