Filmbol Forum Film İndir FHD - FULL HD v Kara Şövalye Yükseliyor (The Dark Knight Rises) - 2012 - TR+ORG - FHD - x264 | tt1345836
Bildirimi Kapat
Merhaba , site giderlerini bir nebze olsun karşılamak adına link kısaltma servisleri kullanmaya başladık. İndirme linkleri sizi ouo.io adresinde yönlendirecek, 3 saniye geçtikten sonra Get Link butonuna tıklayarak linke ulaşacaksınız. Premium üyeler bu durumdan etkilenmeyecektir.


Premium Üyelik Al

Kara Şövalye Yükseliyor (The Dark Knight Rises) - 2012 - TR+ORG - FHD - x264 | tt1345836
TheSteeL
Kara Şövalye Yükseliyor (The Dark Knight Rises) - 2012 - TR+ORG - FHD - x264 | tt1345836
2
52
  • Derecelendirme: 0/5 - 0 oy
  • 1
  • 2
  • 3
  • 4
  • 5
Konuyu Okuyanlar:1 Ziyaretçi
Şuan Online!
Filmin Yayınlanma Tarihi: 2012 
Şuan Online!
TheSteeL Chief Executive Officer
******
CEO


 Kara Şövalye Yükseliyor



Gotham'ın koruyucusu Batman, başarılı işlere imza atmış ve halkın takdirini kazanmıştır. Fakat o suçluları yok ederken, halka yardımcı olmaya çalışırken bile ondan nefret eden bir çok insan var olmaya başlamıştır. Batman'in yapacağı en iyi şey, ne olursa olsun düşmanlarına karşı savaşmaktır. Fakat Batman'ın önüne çıkan bir terörist lideri Batman'dan daha güçlü ve halkın desteğini kazanmış birisidir. Bu Batman için çok çetin bir savaş olacaktır çünkü ilk defa kendisinden güçlü bir rakip ile savaşacaktır....

Kara Şövalye Yükseliyor (2012) (The Dark Knight Rises) | tt1345836 Filmi Imdb'den 1548500 kişi tarafından oylandı ve 8,4 puan aldı. Bu film için editör puanı %95 olarak belirlendi. İyi Seyirler!

Teknik Detaylar

Kod :
General
Unique ID                                : 241503060791993092620828307111638444132 (0xB5AFCC326677ED5F781B2EAEB2D3A864)
Complete name                            : /home/TheSteel/Desktop/2/Kara.Sovalye.Yükseliyor.2012.FHD.Bluray.x264.TR.ENG.Filmbol.mkv
Format                                   : Matroska
Format version                           : Version 4
File size                                : 12.8 GiB
Duration                                 : 2 h 44 min
Overall bit rate                         : 11.1 Mb/s
Encoded date                             : UTC 2021-06-02 09:48:45
Writing application                      : mkvmerge v31.0.0 ('Dolores In A Shoestand') 64-bit
Writing library                          : libebml v1.3.6 + libmatroska v1.4.9

Video
ID                                       : 1
Format                                   : AVC
Format/Info                              : Advanced Video Codec
Format profile                           : [email protected]
Format settings                          : CABAC / 4 Ref Frames
Format settings, CABAC                   : Yes
Format settings, Reference frames        : 4 frames
Codec ID                                 : V_MPEG4/ISO/AVC
Duration                                 : 2 h 44 min
Bit rate                                 : 8 954 kb/s
Width                                    : 1 920 pixels
Height                                   : 1 080 pixels
Display aspect ratio                     : 16:9
Frame rate mode                          : Constant
Frame rate                               : 23.976 FPS
Color space                              : YUV
Chroma subsampling                       : 4:2:0
Bit depth                                : 8 bits
Scan type                                : Progressive
Bits/(Pixel*Frame)                       : 0.180
Stream size                              : 10.3 GiB (81%)
Title                                    : FHD - Filmbol.org
Writing library                          : x264 core 128 r2216 198a7ea
Encoding settings                        : cabac=1 / ref=4 / deblock=1:0:0 / analyse=0x3:0x133 / me=umh / subme=7 / psy=1 / psy_rd=1.00:0.00 / mixed_ref=1 / me_range=16 / chroma_me=1 / trellis=1 / 8x8dct=1 / cqm=0 / deadzone=21,11 / fast_pskip=0 / chroma_qp_offset=-2 / threads=12 / lookahead_threads=2 / sliced_threads=0 / nr=0 / decimate=1 / interlaced=0 / bluray_compat=0 / constrained_intra=0 / bframes=3 / b_pyramid=2 / b_adapt=1 / b_bias=0 / direct=1 / weightb=1 / open_gop=0 / weightp=2 / keyint=250 / keyint_min=23 / scenecut=40 / intra_refresh=0 / rc_lookahead=40 / rc=2pass / mbtree=1 / bitrate=8954 / ratetol=1.0 / qcomp=0.60 / qpmin=0 / qpmax=69 / qpstep=4 / cplxblur=20.0 / qblur=0.5 / ip_ratio=1.40 / aq=1:1.00
Language                                 : English
Default                                  : Yes
Forced                                   : No

Audio #1
ID                                       : 2
Format                                   : AC-3
Format/Info                              : Audio Coding 3
Commercial name                          : Dolby Digital
Codec ID                                 : A_AC3
Duration                                 : 2 h 44 min
Bit rate mode                            : Constant
Bit rate                                 : 640 kb/s
Channel(s)                               : 6 channels
Channel layout                           : L R C LFE Ls Rs
Sampling rate                            : 48.0 kHz
Frame rate                               : 31.250 FPS (1536 SPF)
Compression mode                         : Lossy
Stream size                              : 753 MiB (6%)
Title                                    : Türkçe - Filmbol.org
Language                                 : Turkish
Service kind                             : Complete Main
Default                                  : Yes
Forced                                   : No

Audio #2
ID                                       : 3
Format                                   : DTS
Format/Info                              : Digital Theater Systems
Codec ID                                 : A_DTS
Duration                                 : 2 h 44 min
Bit rate mode                            : Constant
Bit rate                                 : 1 509 kb/s
Channel(s)                               : 6 channels
Channel layout                           : C L R Ls Rs LFE
Sampling rate                            : 48.0 kHz
Frame rate                               : 93.750 FPS (512 SPF)
Bit depth                                : 24 bits
Compression mode                         : Lossy
Stream size                              : 1.73 GiB (14%)
Title                                    : Orjinal Dil - Filmbol.org
Language                                 : English
Default                                  : No
Forced                                   : No

Text
ID                                       : 4
Format                                   : UTF-8
Codec ID                                 : S_TEXT/UTF8
Codec ID/Info                            : UTF-8 Plain Text
Duration                                 : 2 h 36 min
Bit rate                                 : 59 b/s
Count of elements                        : 1760
Stream size                              : 67.8 KiB (0%)
Title                                    : Türkçe - Filmbol.org
Language                                 : Turkish
Default                                  : No
Forced                                   : No

Film Detayları


 Kara Şövalye Yükseliyor

 Kara Şövalye Yükseliyor

 Kara Şövalye Yükseliyor


Film Fragmanı


Film Detayları



Zip Şifresi: filmbol.org Aşağıdaki butona tıklayarak kopyalabilirsiniz.

Mega linkiniz:








Bunun için üzgünüz ancak, bu linke sadece premium üyeler erişebilir.

Filmbol Cloud





WWW
Şuan Offine!
Şuan Offine!
neobre Yeni Üye
*
Üye
  • Konular0
  • Mesajlar109
  • Rep puanı 0
Teşekkürler
Şuan Offine!
Şuan Offine!
hdengin Yeni Üye
*
Üye
  • Konular0
  • Mesajlar9
  • Rep puanı 0
Teşekkürler. Saygılar.


Hızlı Menü: