Filmbol Forum Film İndir BRRip XviD v Kara Şövalye (The Dark Knight) - 2008 - TR - BRRip XviD | tt0468569

Premium Üyelik Al

Bildirimi Kapat
Mega linklerinin şikayet edilmemesi için global erişime kapatıp sadece yorum yapanlara açıyoruz. Bu linkleri gizleme işlemini mecburen yapıyoruz ve yorum yapmanızın siteye değil size faydası vardır. Teşekkürler yazmayı çok görüp, Random/Spam/Anlamsız mesajlar atarak forumu kirletip Mega linklerini açmaya çalışan kullanıcılara süresiz ban atacağız.


Kara Şövalye (The Dark Knight) - 2008 - TR - BRRip XviD | tt0468569
TheSteeL
Kara Şövalye (The Dark Knight) - 2008 - TR - BRRip XviD | tt0468569
0
14
  • Derecelendirme: 0/5 - 0 oy
  • 1
  • 2
  • 3
  • 4
  • 5
Konuyu Okuyanlar:1 Ziyaretçi
Şuan Online!
Filmin Yayınlanma Tarihi: 2008 
WWW
Şuan Online!
TheSteeL Süper Moderatör
*****
Süper Moderatör



 Kara Şövalye



Gotham eskilerde sakin, sevimli ve suç oranının çok düşük olduğunu bir şehir olarak bilinirdi. Fakat bu şehirde bu kadar sessizlik olması bazı kişileri rahatsız etmişti. Üstelik buradaki herkes de suçsuz günahsız sayılmazdı. Joker isminde bir suçlu, şehre dayanmaya karar verir. Eskilerde sıradan bir hayatı olan Joker, şimdi yeni şeyler yaparak tarihe adına iyi veya kötü bir şekilde yazdırmak istemektedir. Fakat karşısına Gotham'ın koruyucusu Batman çıktığında işler değişecek ve Joker aldığı karardan dolayı büyük cezalar ödeyecektir...

Kara Şövalye (2008) (The Dark Knight) | tt0468569 Filmi Imdb'den 2362000 kişi tarafından oylandı ve 9,0 puan aldı. Bu film için editör puanı %100 olarak belirlendi. İyi Seyirler!

Teknik Detaylar

Kod :
General
Unique ID                                : 184849851154353852061119600973097221729 (0x8B10C94E95E268C11D4CA176AC943E61)
Complete name                            : /home/TheSteel/Desktop/1/Kara.Sovalye.2008.BRRip.Xvid.TR.Filmbol.avi
Format                                   : Matroska
Format version                           : Version 4
File size                                : 692 MiB
Duration                                 : 2 h 32 min
Overall bit rate                         : 636 kb/s
Encoded date                             : UTC 2021-06-02 08:24:21
Writing application                      : mkvmerge v31.0.0 ('Dolores In A Shoestand') 64-bit
Writing library                          : libebml v1.3.6 + libmatroska v1.4.9
FileExtension_Invalid                    : mkv mk3d mka mks

Video
ID                                       : 1
Format                                   : MPEG-4 Visual
Format profile                           : Advanced [email protected]
Format settings                          : BVOP2
Format settings, BVOP                    : 2
Format settings, QPel                    : No
Format settings, GMC                     : No warppoints
Format settings, Matrix                  : Default (H.263)
Codec ID                                 : V_MS/VFW/FOURCC / XVID
Codec ID/Hint                            : XviD
Duration                                 : 2 h 32 min
Bit rate                                 : 506 kb/s
Width                                    : 720 pixels
Height                                   : 304 pixels
Display aspect ratio                     : 2.35:1
Frame rate mode                          : Constant
Frame rate                               : 23.976 (23976/1000) FPS
Color space                              : YUV
Chroma subsampling                       : 4:2:0
Bit depth                                : 8 bits
Scan type                                : Progressive
Compression mode                         : Lossy
Bits/(Pixel*Frame)                       : 0.096
Stream size                              : 551 MiB (80%)
Title                                    : Filmbol.org
Writing library                          : XviD 1.2.1 (UTC 2008-12-04)
Default                                  : Yes
Forced                                   : No

Audio
ID                                       : 2
Format                                   : MPEG Audio
Format version                           : Version 1
Format profile                           : Layer 3
Format settings                          : Joint stereo
Codec ID                                 : A_MPEG/L3
Codec ID/Hint                            : MP3
Duration                                 : 2 h 32 min
Bit rate mode                            : Constant
Bit rate                                 : 128 kb/s
Channel(s)                               : 2 channels
Sampling rate                            : 48.0 kHz
Frame rate                               : 41.667 FPS (1152 SPF)
Compression mode                         : Lossy
Stream size                              : 139 MiB (20%)
Title                                    : Türkçe - Filmbol.org
Writing library                          : LAME3.98.2
Default                                  : Yes
Forced                                   : No

Film Detayları


 Kara Şövalye

 Kara Şövalye

 Kara Şövalye


Film Fragmanı


Film Detayları


Uptobox ile indir

1Fichier ile indir

1Fichier'den İndiremiyor musun? Tıklayın!


Mega linki şuan da gizli. Kullanıma açmak için konuya yorum yapın ve ardından sayfayı yenileyin.

Mega


Bunun için üzgünüz ancak, bu linke sadece premium üyeler erişebilir.

Filmbol Cloud







Hızlı Menü: