Filmbol Forum Film İndir FHD - FULL HD v Genç Titanlar Filmi (Teen Titans Go! To the Movies) - 2018 - TR+ORG - FHD - x264 | tt7424200

Premium Üyelik Al

Bildirimi Kapat
Mega linklerinin şikayet edilmemesi için global erişime kapatıp sadece yorum yapanlara açıyoruz. Bu linkleri gizleme işlemini mecburen yapıyoruz ve yorum yapmanızın siteye değil size faydası vardır. Teşekkürler yazmayı çok görüp, Random/Spam/Anlamsız mesajlar atarak forumu kirletip Mega linklerini açmaya çalışan kullanıcılara süresiz ban atacağız.


Genç Titanlar Filmi (Teen Titans Go! To the Movies) - 2018 - TR+ORG - FHD - x264 | tt7424200
BroserBros
Genç Titanlar Filmi (Teen Titans Go! To the Movies) - 2018 - TR+ORG - FHD - x264 | tt7424200
0
9
  • Derecelendirme: 0/5 - 0 oy
  • 1
  • 2
  • 3
  • 4
  • 5
Konuyu Okuyanlar:1 Ziyaretçi
Şuan Online!
Filmin Yayınlanma Tarihi: 2018 
WWW
Şuan Online!
BroserBros Kurucu Admin
*******
Admin



 Genç Titanlar Filmi



Genç Titanlar Filmi, süper kahraman ekibi Genç Titanlar’ın dünyayı ele geçirmeye çalışanlara karşı verdikleri zorlu mücadeleyi konu ediyor. Süper kahraman ekibi Teen Titans’ın üyelerine göre; bütün süper kahramanların kendilerine ait bir filmleri vardır. Fakat durum bizim ekip için böyle değildir. Fakat grubun fiili lideri Robin bu işi çözmeye ve yardımcı karakter yerine bir star olmaya kararlıdır. Ekip amacına ulaşmak adına; Hollywood’un en gözde yönetmeninin dikkatini çekmek için birkaç çılgınca fikirle beraber Tinsel Kasabası’na gelir. Ancak hayallerini gerçekleştireceklerinden emin olan grup üyeleri, dünyayı ele geçirmeye çalışan bir süper kötü tarafından yanlış yönlendirilir. İşler gitgide kötüye giderken süper kahraman ekibi, arkadaşlıklarının ve dirençlerinin sınandığı kimi olaylar sonunda, Teen Titans’ın kaderini kendi elleriyle zorlaştıracaklardır…

Genç Titanlar Filmi (2018) (Teen Titans Go! To the Movies) | tt7424200 Filmi Imdb'den 20,000 kişi tarafından oylandı ve 6,8 puan aldı. Bu film için editör puanı %77 olarak belirlendi. İyi Seyirler!

Teknik Detaylar

Kod :
General
Unique ID                                : 187800094340768435255564220280250989449 (0x8D48FB86C18938682116ED42A9EA7B89)
Complete name                            : /home/BroserBros/Desktop/7/Genç.Titanlar.Filmi.2018.FHD.BluRay.x264.TR.ENG.Filmbol.mkv
Format                                   : Matroska
Format version                           : Version 4
File size                                : 3.45 GiB
Duration                                 : 1 h 24 min
Overall bit rate                         : 5 870 kb/s
Movie name                               : Genç Titanlar Filmi - Teen Titans Go! To the Movies - 2018 | Filmbol.org
Encoded date                             : UTC 2021-06-03 14:46:37
Writing application                      : mkvmerge v53.0.0 ('Fool's Gold') 64-bit
Writing library                          : libebml v1.4.1 + libmatroska v1.6.2
Cover                                    : Yes
Attachments                              : cover_land.jpg / small_cover.jpg / small_cover_land.jpg / cover.jpg

Video
ID                                       : 1
Format                                   : AVC
Format/Info                              : Advanced Video Codec
Format profile                           : [email protected]
Format settings                          : CABAC / 4 Ref Frames
Format settings, CABAC                   : Yes
Format settings, Reference frames        : 4 frames
Codec ID                                 : V_MPEG4/ISO/AVC
Duration                                 : 1 h 24 min
Bit rate                                 : 5 100 kb/s
Width                                    : 1 920 pixels
Height                                   : 1 080 pixels
Display aspect ratio                     : 16:9
Frame rate mode                          : Constant
Frame rate                               : 23.976 FPS
Color space                              : YUV
Chroma subsampling                       : 4:2:0
Bit depth                                : 8 bits
Scan type                                : Progressive
Bits/(Pixel*Frame)                       : 0.103
Stream size                              : 2.99 GiB (87%)
Title                                    : FHD - Filmbol.org
Language                                 : English
Default                                  : Yes
Forced                                   : No
Color range                              : Limited
Color primaries                          : BT.709
Transfer characteristics                 : BT.709
Matrix coefficients                      : BT.709

Audio #1
ID                                       : 2
Format                                   : AC-3
Format/Info                              : Audio Coding 3
Commercial name                          : Dolby Digital
Codec ID                                 : A_AC3
Duration                                 : 1 h 24 min
Bit rate mode                            : Constant
Bit rate                                 : 384 kb/s
Channel(s)                               : 6 channels
Channel layout                           : L R C LFE Ls Rs
Sampling rate                            : 48.0 kHz
Frame rate                               : 31.250 FPS (1536 SPF)
Compression mode                         : Lossy
Delay relative to video                  : -18 ms
Stream size                              : 231 MiB (7%)
Title                                    : Türkçe - Filmbol.org
Language                                 : Turkish
Service kind                             : Complete Main
Default                                  : Yes
Forced                                   : Yes

Audio #2
ID                                       : 3
Format                                   : AC-3
Format/Info                              : Audio Coding 3
Commercial name                          : Dolby Digital
Codec ID                                 : A_AC3
Duration                                 : 1 h 24 min
Bit rate mode                            : Constant
Bit rate                                 : 384 kb/s
Channel(s)                               : 6 channels
Channel layout                           : L R C LFE Ls Rs
Sampling rate                            : 48.0 kHz
Frame rate                               : 31.250 FPS (1536 SPF)
Compression mode                         : Lossy
Delay relative to video                  : -42 ms
Stream size                              : 231 MiB (7%)
Title                                    : Orijinal Dil - Filmbol.org
Language                                 : English
Service kind                             : Complete Main
Default                                  : No
Forced                                   : No

Text
ID                                       : 4
Format                                   : UTF-8
Codec ID                                 : S_TEXT/UTF8
Codec ID/Info                            : UTF-8 Plain Text
Duration                                 : 1 h 22 min
Bit rate                                 : 67 b/s
Count of elements                        : 1275
Stream size                              : 40.8 KiB (0%)
Title                                    : Türkçe - Filmbol.org
Language                                 : Turkish
Default                                  : No
Forced                                   : No

Film Detayları


 Genç Titanlar Filmi

 Genç Titanlar Filmi

 Genç Titanlar Filmi


Film Fragmanı


Film Detayları

Mega linki şuan da gizli. Kullanıma açmak için konuya yorum yapın ve ardından sayfayı yenileyin.

Mega


Bunun için üzgünüz ancak, bu linke sadece premium üyeler erişebilir.

Filmbol Cloud







Hızlı Menü: