Filmbol Forum Film İndir FHD - FULL HD v Silinmiş Çocuk (Boy Erased) - 2018 - TR+ORG - FHD - x264 | tt7008872

Premium Üyelik Al

Bildirimi Kapat
Mega linklerinin şikayet edilmemesi için global erişime kapatıp sadece yorum yapanlara açıyoruz. Bu linkleri gizleme işlemini mecburen yapıyoruz ve yorum yapmanızın siteye değil size faydası vardır. Teşekkürler yazmayı çok görüp, Random/Spam/Anlamsız mesajlar atarak forumu kirletip Mega linklerini açmaya çalışan kullanıcılara süresiz ban atacağız.


Silinmiş Çocuk (Boy Erased) - 2018 - TR+ORG - FHD - x264 | tt7008872
BroserBros
Silinmiş Çocuk (Boy Erased) - 2018 - TR+ORG - FHD - x264 | tt7008872
0
6
  • Derecelendirme: 0/5 - 0 oy
  • 1
  • 2
  • 3
  • 4
  • 5
Konuyu Okuyanlar:1 Ziyaretçi
Şuan Online!
Filmin Yayınlanma Tarihi: 2018 
WWW
Şuan Online!
BroserBros Kurucu Admin
*******
Admin



 Silinmiş Çocuk



Jared küçük bir Amerikan kasabasında yaşayan genç bir delikanlıdır. Baptist bir papazın oğlu olan Jared ailesiyle çatışmaktadır. 19 yaşındaki genç delikanlı bir ültimatom ile karşı karşıya kalır. Ya bir eşcinsel dönüşüm terapisi programına katılacaktır ya da ailesi, arkadaşları ve inançları tarafından terk edilerek sürgüne gidecektir. Bu yolculuk, bir gencin kimliğinin her yönünü sorgulamaya zorlanırken kendini bulmak için verdiği mücadelenin gerçek hikayesidir.

Silinmiş Çocuk (2018) (Boy Erased) | tt7008872 Filmi Imdb'den 40,000 kişi tarafından oylandı ve 6,9 puan aldı. Bu film için editör puanı %74 olarak belirlendi. İyi Seyirler!

Teknik Detaylar

Kod :
General
Unique ID                                : 72102758836845328764666203496664345748 (0x363E7C79ADF0F2C1B54B6391473D2C94)
Complete name                            : /home/BroserBros/Desktop/3/Silinmiş.Çocuk.2018.FHD.BluRay.x264.TR.ENG.Filmbol.mkv
Format                                   : Matroska
Format version                           : Version 4
File size                                : 4.39 GiB
Duration                                 : 1 h 54 min
Overall bit rate                         : 5 474 kb/s
Movie name                               : Silinmiş Çocuk - Boy Erased - 2018 | Filmbol.org
Encoded date                             : UTC 2021-06-03 13:44:39
Writing application                      : mkvmerge v53.0.0 ('Fool's Gold') 64-bit
Writing library                          : libebml v1.4.1 + libmatroska v1.6.2
Cover                                    : Yes
Attachments                              : small_cover.jpg / small_cover_land.jpg / cover.jpg / cover_land.jpg

Video
ID                                       : 1
Format                                   : AVC
Format/Info                              : Advanced Video Codec
Format profile                           : [email protected]
Format settings                          : CABAC / 4 Ref Frames
Format settings, CABAC                   : Yes
Format settings, Reference frames        : 4 frames
Codec ID                                 : V_MPEG4/ISO/AVC
Duration                                 : 1 h 54 min
Bit rate                                 : 4 960 kb/s
Width                                    : 1 920 pixels
Height                                   : 1 036 pixels
Display aspect ratio                     : 1.85:1
Frame rate mode                          : Constant
Frame rate                               : 23.976 (24000/1001) FPS
Color space                              : YUV
Chroma subsampling                       : 4:2:0
Bit depth                                : 8 bits
Scan type                                : Progressive
Bits/(Pixel*Frame)                       : 0.104
Stream size                              : 3.98 GiB (91%)
Title                                    : FHD - Filmbol.org
Language                                 : English
Default                                  : Yes
Forced                                   : No
Color range                              : Limited
Color primaries                          : BT.709
Transfer characteristics                 : BT.709
Matrix coefficients                      : BT.709

Audio #1
ID                                       : 2
Format                                   : MPEG Audio
Format version                           : Version 1
Format profile                           : Layer 3
Format settings                          : Joint stereo
Codec ID                                 : A_MPEG/L3
Codec ID/Hint                            : MP3
Duration                                 : 1 h 54 min
Bit rate mode                            : Constant
Bit rate                                 : 128 kb/s
Channel(s)                               : 2 channels
Sampling rate                            : 48.0 kHz
Frame rate                               : 41.667 FPS (1152 SPF)
Compression mode                         : Lossy
Delay relative to video                  : -34 ms
Stream size                              : 105 MiB (2%)
Title                                    : Türkçe - Filmbol.org
Language                                 : Turkish
Default                                  : Yes
Forced                                   : Yes

Audio #2
ID                                       : 3
Format                                   : AC-3
Format/Info                              : Audio Coding 3
Commercial name                          : Dolby Digital
Codec ID                                 : A_AC3
Duration                                 : 1 h 54 min
Bit rate mode                            : Constant
Bit rate                                 : 384 kb/s
Channel(s)                               : 6 channels
Channel layout                           : L R C LFE Ls Rs
Sampling rate                            : 48.0 kHz
Frame rate                               : 31.250 FPS (1536 SPF)
Compression mode                         : Lossy
Delay relative to video                  : -42 ms
Stream size                              : 315 MiB (7%)
Title                                    : Orijinal Dil - Filmbol.org
Language                                 : English
Service kind                             : Complete Main
Default                                  : No
Forced                                   : No

Text
ID                                       : 4
Format                                   : UTF-8
Codec ID                                 : S_TEXT/UTF8
Codec ID/Info                            : UTF-8 Plain Text
Duration                                 : 1 h 48 min
Bit rate                                 : 54 b/s
Count of elements                        : 1232
Stream size                              : 43.2 KiB (0%)
Title                                    : Türkçe - Filmbol.org
Language                                 : Turkish
Default                                  : No
Forced                                   : No

Film Detayları


 Silinmiş Çocuk

 Silinmiş Çocuk

 Silinmiş Çocuk


Film Fragmanı


Film Detayları

Mega linki şuan da gizli. Kullanıma açmak için konuya yorum yapın ve ardından sayfayı yenileyin.

Mega


Bunun için üzgünüz ancak, bu linke sadece premium üyeler erişebilir.

Filmbol Cloud







Hızlı Menü: