Filmbol Forum Film İndir BRRip XviD v Frekans (Cell) - 2016 - TR - BRRip XviD | tt0775440
Mega linklerinin şikayet edilmemesi için global erişime kapatıp sadece yorum yapanlara açıyoruz. Bu linkleri gizleme işlemini mecburen yapıyoruz ve yorum yapmanızın siteye değil size faydası vardır. Teşekürler yazmayı çok görüp, Random/Spam mesajlar atarak Mega linklerini açmaya çalışan kullanıcılara önce süresiz ban, devam ederse IP ban atacağız.
Filmbol'da moderatör olmak ister misiniz? Bizimle iletişime geçmek için tıklayın!
Frekans (Cell) - 2016 - TR - BRRip XviD | tt0775440
BroserBros
Frekans (Cell) - 2016 - TR - BRRip XviD | tt0775440
4
1176
  • Derecelendirme: 0/5 - 0 oy
  • 1
  • 2
  • 3
  • 4
  • 5
Konuyu Okuyanlar:1 Ziyaretçi
Şuan Online!
Filmin Yayınlanma Tarihi: 2016 
WWW
Şuan Online!
BroserBros Kurucu Admin
*******
Admin



 Frekans



Clayton Riddell kariyerinin zirvesini yaşayan çok ünlü bir yazardır. Ailesinin kendisine eşlik edemeyecek olması nedeniyle canı bir hayli sıkkın olsa da son romanının sunumunu yapmak için Boston’a gitmesi gerekir. Sunum günü gelir, ancak o esnada çevresinde garip olaylar yaşanmaya başlar… Cep telefonlarından yayılmaya başlayan bir sinyal insanları kana susamış varlıklara dönüştürmektedir. Bu yeni zombi güzellemesinden sağ çıkmaya çalışan küçük bir grup hayatta kalmak için her şeyi göze almak zorundadır.
Stephen King’in 2006 basımı aynı adlı romanından uyarlanan filmin yönetmeni Tod Williams. Başlıca rollerinde ise Samuel L. Jackson, John Cusack ve Isabelle Fuhrman bulunuyor.

Frekans (2016) (Cell) | tt0775440 Filmi Imdb'den 25,000 kişi tarafından oylandı ve 4,4 puan aldı. Bu film için editör puanı %48 olarak belirlendi. İyi Seyirler!

Teknik Detaylar

Kod :
General
Unique ID                                : 164589369054746806778314176677174136002 (0x7BD2C26A98B5CD1C48B80D33F3554CC2)
Complete name                            : /home/BroserBros/Desktop/3/Frekans.2016.BRRip.XviD.TR.Filmbol.avi
Format                                   : Matroska
Format version                           : Version 4
File size                                : 1.19 GiB
Duration                                 : 1 h 37 min
Overall bit rate                         : 1 746 kb/s
Movie name                               : Frekans - Cell - 2016 | Filmbol.org
Encoded date                             : UTC 2021-03-29 12:59:33
Writing application                      : mkvmerge v53.0.0 ('Fool's Gold') 64-bit
Writing library                          : libebml v1.4.1 + libmatroska v1.6.2
FileExtension_Invalid                    : mkv mk3d mka mks

Video
ID                                       : 1
Format                                   : MPEG-4 Visual
Format profile                           : Advanced [email protected]
Format settings                          : BVOP2 / Custom Matrix
Format settings, BVOP                    : 2
Format settings, QPel                    : No
Format settings, GMC                     : No warppoints
Format settings, Matrix                  : Custom
Codec ID                                 : V_MS/VFW/FOURCC / XVID
Codec ID/Hint                            : XviD
Duration                                 : 1 h 37 min
Bit rate                                 : 1 616 kb/s
Width                                    : 720 pixels
Height                                   : 304 pixels
Display aspect ratio                     : 2.35:1
Frame rate mode                          : Constant
Frame rate                               : 23.976 (24000/1001) FPS
Color space                              : YUV
Chroma subsampling                       : 4:2:0
Bit depth                                : 8 bits
Scan type                                : Progressive
Compression mode                         : Lossy
Bits/(Pixel*Frame)                       : 0.308
Stream size                              : 1.10 GiB (93%)
Title                                    : Frekans - Cell - 2016 | Filmbol.org
Writing library                          : XviD 1.2.1 (UTC 2008-12-04)
Default                                  : Yes
Forced                                   : No

Audio
ID                                       : 2
Format                                   : MPEG Audio
Format version                           : Version 1
Format profile                           : Layer 3
Format settings                          : Joint stereo / MS Stereo
Codec ID                                 : A_MPEG/L3
Codec ID/Hint                            : MP3
Duration                                 : 1 h 37 min
Bit rate mode                            : Constant
Bit rate                                 : 128 kb/s
Channel(s)                               : 2 channels
Sampling rate                            : 48.0 kHz
Frame rate                               : 41.667 FPS (1152 SPF)
Compression mode                         : Lossy
Stream size                              : 89.2 MiB (7%)
Title                                    : Frekans - Cell - 2016 | Filmbol.org
Writing library                          : LAME3.99.5
Default                                  : Yes
Forced                                   : No

Film Detayları


 Frekans

 Frekans

 Frekans


Film Fragmanı


Film Detayları


Uptobox ile indir

1Fichier ile indir

1Fichier'den İndiremiyor musun? Tıklayın!


Mega linki şuan da gizli. Kullanıma açmak için konuya yorum yapın ve ardından sayfayı yenileyin.

Mega


Bunun için üzgünüz ancak, bu linke sadece premium üyeler erişebilir.

Filmbol Cloud





Şuan Offine!
Şuan Offine!
ismail30 Yeni Üye
*
Üye

  • Konular0
  • Mesajlar1
  • Rep puanı 0
çok iyi film
Şuan Online!
Şuan Online!
Furkan61 Süper Üye
***
Super Üye

  • Konular0
  • Mesajlar220
  • Rep puanı 1
güzel film
Şuan Online!
Şuan Online!
BroserBros Kurucu Admin
*******
Admin

30.03.2021 Yönetici Notu:

Kırık linkler kontrol edildi, kaldırıldı ve yenilendi. Tüm linkler tamamen çalışır durumda. @Furkan61
Şuan Online!
Şuan Online!
Furkan61 Süper Üye
***
Super Üye

  • Konular0
  • Mesajlar220
  • Rep puanı 1
(30-03-2021, Saat: 16:07)BroserBros Adlı Kullanıcıdan Alıntı: 30.03.2021 Yönetici Notu:

Kırık linkler kontrol edildi, kaldırıldı ve yenilendi. Tüm linkler tamamen çalışır durumda. @Furkan61
Teşekkürler BroserBros Big Grin


Konu ile Alakalı Benzer Konular
Konular Yazar Yorumlar Okunma Son Yorum
Filmin Yayınlanma Tarihi: 2018
Han Solo: Bir Star Wars Hikâyesi (Solo: A Star Wars Story) - 2018 - TR - BRRip XviD | tt3778644 BroserBros 2 438 3 saat önce
Son Yorum: Furkan61
Filmin Yayınlanma Tarihi: 2015
Yıldız Savaşları 7: Güç Uyanıyor (Star Wars: Episode VII - The Force Awakens) - 2015 - TR - BRRip XviD | tt2488496 BroserBros 8 2,185 3 saat önce
Son Yorum: Furkan61
Filmin Yayınlanma Tarihi: 1983
Yıldız Savaşları 6: Jedi'ın Dönüşü (Star Wars: Episode VI - Return of the Jedi) - 1983 - TR - BRRip XviD | tt0086190 BroserBros 8 1,785 3 saat önce
Son Yorum: Furkan61
Filmin Yayınlanma Tarihi: 1980
Yıldız Savaşları 5: İmparator (Star Wars: Episode V - The Empire Strikes Back) - 1980 - TR - BRRip XviD | tt0080684 BroserBros 6 1,779 3 saat önce
Son Yorum: Furkan61
Filmin Yayınlanma Tarihi: 2011
Transformers: Ay'ın Karanlık Yüzü (Transformers: Dark of the Moon) - 2011 - TR - BRRip XviD | tt1399103 TheSteeL 2 15 9 saat önce
Son Yorum: TheSteeL

Hızlı Menü: