Filmbol Forum Film İndir BRRip XviD v Safkan (Thoroughbreds) - 2017 - TR - BRRip XviD | tt5649108

Premium Üyelik Al

Bildirimi Kapat
Mega linklerinin şikayet edilmemesi için global erişime kapatıp sadece yorum yapanlara açıyoruz. Bu linkleri gizleme işlemini mecburen yapıyoruz ve yorum yapmanızın siteye değil size faydası vardır. Teşekkürler yazmayı çok görüp, Random/Spam/Anlamsız mesajlar atarak forumu kirletip Mega linklerini açmaya çalışan kullanıcılara süresiz ban atacağız.


Safkan (Thoroughbreds) - 2017 - TR - BRRip XviD | tt5649108
BroserBros
Safkan (Thoroughbreds) - 2017 - TR - BRRip XviD | tt5649108
0
22
  • Derecelendirme: 0/5 - 0 oy
  • 1
  • 2
  • 3
  • 4
  • 5
Konuyu Okuyanlar:1 Ziyaretçi
Şuan Online!
Filmin Yayınlanma Tarihi: 2017 
WWW
Şuan Online!
BroserBros Kurucu Admin
*******
Admin



 Safkan



Çocukluk arkadaşı olan Lily ve Amanda, yıllar sonra Connecticut’ta yeniden bir araya gelir. Ayrı büyüyen kızlar adeta birbirinin tam tersi kişiler olmuşlardır. Lily, eğitim aldığı prestijli yatılı okulu ve özgeçmişindeki gıpta edilecek staj yeri ile havalı, biraz da burnu havada bir kıza dönüşürken, Amanda ise onu sosyal olarak yalnızlaştıracak bir mizah anlayışı ve sarkastik tutum geliştirmiştir. İkili, zıt karakterlerine rağmen, Lily’nin baskıcı üvey babası Mark’a karşı bir araya gelirler. Arkadaşlıkları geliştikçe birbirlerindeki en tehlikeli düşünceleri özgür bırakan kızlar, bu işi çözmek ve hayatlarına istedikleri yönü verebilmek adına işi halletmesi için bölgenin serserilerinden Tim’le ortaklık kurarlar. Ancak bu yol planladıklarından çok daha tehlikelidir…

Safkan (2017) (Thoroughbreds) | tt5649108 Filmi Imdb'den 40,000 kişi tarafından oylandı ve 6,7 puan aldı. Bu film için editör puanı %77 olarak belirlendi. İyi Seyirler!

Teknik Detaylar

Kod :
General
Unique ID                                : 283032930854871359991193249243181898332 (0xD4EE28E0AA1B37E929180DB312745A5C)
Complete name                            : /home/BroserBros/Desktop/7/Safkan.2017.BRRip.XviD.TR.Filmbol.avi
Format                                   : Matroska
Format version                           : Version 4
File size                                : 1.61 GiB
Duration                                 : 1 h 32 min
Overall bit rate                         : 2 509 kb/s
Movie name                               : Safkan - Thoroughbreds - 2017 | Filmbol.org
Encoded date                             : UTC 2021-06-02 14:12:53
Writing application                      : mkvmerge v53.0.0 ('Fool's Gold') 64-bit
Writing library                          : libebml v1.4.1 + libmatroska v1.6.2
FileExtension_Invalid                    : mkv mk3d mka mks

Video
ID                                       : 1
Format                                   : MPEG-4 Visual
Format profile                           : Advanced [email protected]
Format settings                          : BVOP2 / Custom Matrix
Format settings, BVOP                    : 2
Format settings, QPel                    : No
Format settings, GMC                     : No warppoints
Format settings, Matrix                  : Custom
Muxing mode                              : Packed bitstream
Codec ID                                 : V_MS/VFW/FOURCC / XVID
Codec ID/Hint                            : XviD
Duration                                 : 1 h 32 min
Bit rate                                 : 2 379 kb/s
Width                                    : 720 pixels
Height                                   : 304 pixels
Display aspect ratio                     : 2.35:1
Frame rate mode                          : Constant
Frame rate                               : 23.976 (24000/1001) FPS
Color space                              : YUV
Chroma subsampling                       : 4:2:0
Bit depth                                : 8 bits
Scan type                                : Progressive
Compression mode                         : Lossy
Bits/(Pixel*Frame)                       : 0.453
Stream size                              : 1.53 GiB (95%)
Title                                    : Safkan - Thoroughbreds - 2017 | Filmbol.org
Writing library                          : XviD 1.2.1 (UTC 2008-12-04)
Default                                  : Yes
Forced                                   : No

Audio
ID                                       : 2
Format                                   : MPEG Audio
Format version                           : Version 1
Format profile                           : Layer 3
Format settings                          : Joint stereo / MS Stereo
Codec ID                                 : A_MPEG/L3
Codec ID/Hint                            : MP3
Duration                                 : 1 h 32 min
Bit rate mode                            : Constant
Bit rate                                 : 128 kb/s
Channel(s)                               : 2 channels
Sampling rate                            : 48.0 kHz
Frame rate                               : 41.667 FPS (1152 SPF)
Compression mode                         : Lossy
Stream size                              : 84.3 MiB (5%)
Title                                    : Safkan - Thoroughbreds - 2017 | Filmbol.org
Default                                  : Yes
Forced                                   : No

Film Detayları


 Safkan

 Safkan

 Safkan


Film Fragmanı


Film Detayları


Uptobox ile indir

1Fichier ile indir

1Fichier'den İndiremiyor musun? Tıklayın!


Mega linki şuan da gizli. Kullanıma açmak için konuya yorum yapın ve ardından sayfayı yenileyin.

Mega


Bunun için üzgünüz ancak, bu linke sadece premium üyeler erişebilir.

Filmbol Cloud







Hızlı Menü: