Filmbol Forum Film İndir FHD - FULL HD v Kaçış Oyunu (Play or Die) - 2019 - TR+ORG - FHD - x264 | tt9537532

Premium Üyelik Al

Bildirimi Kapat
Mega linklerinin şikayet edilmemesi için global erişime kapatıp sadece yorum yapanlara açıyoruz. Bu linkleri gizleme işlemini mecburen yapıyoruz ve yorum yapmanızın siteye değil size faydası vardır. Teşekkürler yazmayı çok görüp, Random/Spam/Anlamsız mesajlar atarak forumu kirletip Mega linklerini açmaya çalışan kullanıcılara süresiz ban atacağız.


Kaçış Oyunu (Play or Die) - 2019 - TR+ORG - FHD - x264 | tt9537532
BroserBros
Kaçış Oyunu (Play or Die) - 2019 - TR+ORG - FHD - x264 | tt9537532
0
10
  • Derecelendirme: 0/5 - 0 oy
  • 1
  • 2
  • 3
  • 4
  • 5
Konuyu Okuyanlar:1 Ziyaretçi
Şuan Online!
Filmin Yayınlanma Tarihi: 2019 
WWW
Şuan Online!
BroserBros Kurucu Admin
*******
Admin



 Kaçış Oyunu



Kaçış Oyunu, ‘Paranoya’ adındaki bir kaçış oyununa katılan iki arkadaşın yaşadıklarını konu ediyor. En büyük kaçış oyunu Paranoya’ya hoş geldiniz. Oyunda sadece iki kural var. Birincisi, oyundaki hiçbir şey gerçek değil, ikincisi ise içinizden biri kişi ölecek. Oyun tutkunu olan Lucas ve Chloe da bu çok özel olan kaçış oyunu Paranoya’ya katılmaya karar verir. İlk bilmeceyi başarıyla çözen ikili, terk edilmiş bir akıl hastanesine götürülür. Korkutucu bir ormanın içindeki bu yerde kendileri gibi finale kalan dört oyuncu daha vardır. Oyuncular, kapatıldıkları yerden kurtulup oyunu tamamlamanın yolunu aramaya başlar. Ancak çok geçmeden içlerinden sadece bir kişinin oradan sağ çıkacağını anlarlar.

Kaçış Oyunu (2019) (Play or Die) | tt9537532 Filmi Imdb'den 1,500 kişi tarafından oylandı ve 3,7 puan aldı. Bu film için editör puanı %47 olarak belirlendi. İyi Seyirler!

Teknik Detaylar

Kod :
General
Unique ID                                : 161039652429190667379832797075517799751 (0x79271BDFDE489B820969C5AA4224FD47)
Complete name                            : /home/BroserBros/Desktop/6/Kaçış.Oyunu.2019.FHD.BluRay.x264.TR.ENG.Filmbol.mkv
Format                                   : Matroska
Format version                           : Version 4
File size                                : 6.77 GiB
Duration                                 : 1 h 29 min
Overall bit rate                         : 10.9 Mb/s
Movie name                               : Kaçış Oyunu - 2019 | Filmbol.org
Encoded date                             : UTC 2021-06-02 13:33:00
Writing application                      : mkvmerge v53.0.0 ('Fool's Gold') 64-bit
Writing library                          : libebml v1.4.1 + libmatroska v1.6.2

Video
ID                                       : 1
Format                                   : AVC
Format/Info                              : Advanced Video Codec
Format profile                           : [email protected]
Format settings                          : CABAC / 5 Ref Frames
Format settings, CABAC                   : Yes
Format settings, Reference frames        : 5 frames
Codec ID                                 : V_MPEG4/ISO/AVC
Duration                                 : 1 h 29 min
Bit rate                                 : 9 230 kb/s
Width                                    : 1 920 pixels
Height                                   : 804 pixels
Display aspect ratio                     : 2.40:1
Frame rate mode                          : Constant
Frame rate                               : 24.000 FPS
Color space                              : YUV
Chroma subsampling                       : 4:2:0
Bit depth                                : 8 bits
Scan type                                : Progressive
Bits/(Pixel*Frame)                       : 0.249
Stream size                              : 5.75 GiB (85%)
Title                                    : FHD - Filmbol.org
Writing library                          : x264 core 161 r3033 0d754ec
Language                                 : English
Default                                  : Yes
Forced                                   : No

Audio #1
ID                                       : 2
Format                                   : AC-3
Format/Info                              : Audio Coding 3
Commercial name                          : Dolby Digital
Codec ID                                 : A_AC3
Duration                                 : 1 h 29 min
Bit rate mode                            : Constant
Bit rate                                 : 128 kb/s
Channel(s)                               : 2 channels
Channel layout                           : L R
Sampling rate                            : 48.0 kHz
Frame rate                               : 31.250 FPS (1536 SPF)
Compression mode                         : Lossy
Delay relative to video                  : 24 ms
Stream size                              : 81.6 MiB (1%)
Title                                    : Türkçe - Filmbol.org
Language                                 : Turkish
Service kind                             : Complete Main
Default                                  : Yes
Forced                                   : Yes

Audio #2
ID                                       : 3
Format                                   : DTS
Format/Info                              : Digital Theater Systems
Codec ID                                 : A_DTS
Duration                                 : 1 h 29 min
Bit rate mode                            : Constant
Bit rate                                 : 1 509 kb/s
Channel(s)                               : 6 channels
Channel layout                           : C L R Ls Rs LFE
Sampling rate                            : 48.0 kHz
Frame rate                               : 93.750 FPS (512 SPF)
Bit depth                                : 24 bits
Compression mode                         : Lossy
Stream size                              : 962 MiB (14%)
Title                                    : Orijinal Dil - Filmbol.org
Language                                 : English
Default                                  : No
Forced                                   : No

Text
ID                                       : 4
Format                                   : UTF-8
Codec ID                                 : S_TEXT/UTF8
Codec ID/Info                            : UTF-8 Plain Text
Duration                                 : 1 h 24 min
Bit rate                                 : 36 b/s
Count of elements                        : 596
Stream size                              : 22.6 KiB (0%)
Title                                    : Türkçe - Filmbol.org
Language                                 : Turkish
Default                                  : No
Forced                                   : No

Film Detayları


 Kaçış Oyunu

 Kaçış Oyunu

 Kaçış Oyunu


Film Fragmanı


Film Detayları

Mega linki şuan da gizli. Kullanıma açmak için konuya yorum yapın ve ardından sayfayı yenileyin.

Mega


Bunun için üzgünüz ancak, bu linke sadece premium üyeler erişebilir.

Filmbol Cloud







Hızlı Menü: