Filmbol Forum Film İndir 720P v Halo: The Fall Of Reach Türkçe Dublaj m720P İndir
Mega linklerinin şikayet edilmemesi için global erişime kapatıp sadece yorum yapanlara açıyoruz. Bu linkleri gizleme işlemini mecburen yapıyoruz ve yorum yapmanızın siteye değil size faydası vardır. Teşekürler yazmayı çok görüp, Random/Spam mesajlar atarak Mega linklerini açmaya çalışan kullanıcılara önce süresiz ban, devam ederse IP ban atacağız.
Filmbol'da moderatör olmak ister misiniz? Bizimle iletişime geçmek için tıklayın!
Halo: The Fall Of Reach Türkçe Dublaj m720P İndir
BroserBros
Halo: The Fall Of Reach Türkçe Dublaj m720P İndir
0
1089
  • Derecelendirme: 0/5 - 0 oy
  • 1
  • 2
  • 3
  • 4
  • 5
Konuyu Okuyanlar:1 Ziyaretçi
Şuan Online!
Filmin Yayınlanma Tarihi: 2015 
WWW
Şuan Online!
BroserBros Kurucu Admin
*******
Admin





Ses Kodek: AC3


Audio Coding 3 (AC3)

rarsifresi


filmbol.org





Teknik Detaylar
Kod :
General
Format                                   : Matroska
Format version                           : Version 4 / Version 2
File size                                : 736 MiB
Duration                                 : 1h 4mn
Overall bit rate                         : 1 594 Kbps
Movie name                               : Halo - Filmbol.org

Video
ID                                       : 1
Format                                   : AVC
Format/Info                              : Advanced Video Codec
Format profile                           : [email protected]
Format settings, CABAC                   : Yes
Format settings, ReFrames                : 2 frames
Codec ID                                 : V_MPEG4/ISO/AVC
Duration                                 : 1h 4mn
Bit rate                                 : 1 179 Kbps
Width                                    : 1 280 pixels
Height                                   : 544 pixels
Display aspect ratio                     : 2.35:1
Frame rate mode                          : Constant
Frame rate                               : 23.976 fps
Color space                              : YUV
Chroma subsampling                       : 4:2:0
Bit depth                                : 8 bits
Scan type                                : Progressive
Bits/(Pixel*Frame)                       : 0.071
Stream size                              : 544 MiB (74%)
Title                                    : 720P - Filmbol.org
Language                                 : English
Default                                  : Yes
Forced                                   : No

Audio
ID                                       : 2
Format                                   : AC-3
Format/Info                              : Audio Coding 3
Mode extension                           : CM (complete main)
Format settings, Endianness              : Big
Codec ID                                 : A_AC3
Duration                                 : 1h 4mn
Bit rate mode                            : Constant
Bit rate                                 : 384 Kbps
Channel(s)                               : 6 channels
Channel positions                        : Front: L C R, Side: L R, LFE
Sampling rate                            : 48.0 KHz
Bit depth                                : 16 bits
Compression mode                         : Lossy
Stream size                              : 177 MiB (24%)
Title                                    : Türkçe - Filmbol.org
Language                                 : Turkish
Default                                  : Yes
Forced                                   : No




Film Detayları


Halo The Fall Of Reach

Halo The Fall Of Reach

Halo The Fall Of Reach

Halo The Fall Of Reach

Halo The Fall Of Reach


Film Fragmanı


Film Detayları

Mini 720P İndir


Mega linki şuan da gizli. Kullanıma açmak için konuya yorum yapın ve ardından sayfayı yenileyin.

Mega


Uptobox ile indir

CloudRu ile indir



Hızlı Menü: