⤤ Premium'a Yükselt

Merhaba, Ziyaretçi. Mega linklerinin bir kısmı deaktif halde ve yenileme çalışmalarına başladık. Bu süre içinde ikinci duyuruya kadar mega linklerini raporlamayın!! x

Filmbol Forum Film İndir FHD - FULL HD v Kurtarıcı (Extraction) - 2015 - TR+ORG - FHD - x264 | tt4382872

Filmbol TV kullanıma açıldı. Bu adresten giriş yapabilirsin: Giriş





Kurtarıcı (Extraction) - 2015 - TR+ORG - FHD - x264 | tt4382872
BroserBros
Kurtarıcı (Extraction) - 2015 - TR+ORG - FHD - x264 | tt4382872
4
208
  • Derecelendirme: 0/5 - 0 oy
  • 1
  • 2
  • 3
  • 4
  • 5
Konuyu Okuyanlar:1 Ziyaretçi
Şuan Online!
Filmin Yayınlanma Tarihi: 2016 
WWW
Rapor Et!
Şuan Online!
BroserBros Kurucu Admin
*******
Admin



 Kurtarıcı



Harry Turner babası Leonard gibi CIA için çalışmaktadır. Sahada görev almak için can atar ama sürekli üstleri tarafından reddedilir. Prag kentinde görevlendirilmiştir ve babasının bir arkadaşının himayesindedir. Bir süre sonra Leonard, New Jersey’de başının belaya girdiği bilgisi gelir. Üst yönetim harekete geçer, Harry ekipte olup yardım etmek ister ama yine reddedilir. Harry, uyarılara kulak asmaz ve New Jersey’e gider. Arkasından onu bulması için görevlendirilen kişi ise sürpriz bir isimdir. Filmin yönetmenliğini Steven C. Miller üstlenirken, oyuncu kadrosunda Bruce Willis, Kellan Lutz ve Gina Carano başı çekiyor.

Kurtarıcı (2015) (Extraction) | tt4382872 Filmi Imdb'den 11,000 kişi tarafından oylandı ve 4,1 puan aldı. Bu film için editör puanı %53 olarak belirlendi. İyi Seyirler!

Teknik Detaylar

Kod :
General
Unique ID                                : 276407835569815720279132546482585712500 (0xCFF236760B68B8067F156DB861BBB774)
Complete name                            : /home/BroserBros/Desktop/8/Kurtarıcı.2015.FHD.BluRay.x264.TR.ENG.Filmbol.mkv
Format                                   : Matroska
Format version                           : Version 4
File size                                : 7.07 GiB
Duration                                 : 17 h 10 min
Overall bit rate                         : 983 kb/s
Movie name                               : Kurtarıcı - Extraction - 2015 | Filmbol.org
Encoded date                             : UTC 2021-05-26 05:33:12
Writing application                      : mkvmerge v53.0.0 ('Fool's Gold') 64-bit
Writing library                          : libebml v1.4.1 + libmatroska v1.6.2
Attachments                              : l2a.jpg

Video
ID                                       : 1
Format                                   : AVC
Format/Info                              : Advanced Video Codec
Format profile                           : [email protected]
Format settings                          : CABAC / 5 Ref Frames
Format settings, CABAC                   : Yes
Format settings, Reference frames        : 5 frames
Codec ID                                 : V_MPEG4/ISO/AVC
Duration                                 : 1 h 32 min
Bit rate                                 : 9 252 kb/s
Width                                    : 1 920 pixels
Height                                   : 800 pixels
Display aspect ratio                     : 2.40:1
Frame rate mode                          : Constant
Frame rate                               : 23.976 (24000/1001) FPS
Color space                              : YUV
Chroma subsampling                       : 4:2:0
Bit depth                                : 8 bits
Scan type                                : Progressive
Bits/(Pixel*Frame)                       : 0.251
Stream size                              : 5.97 GiB (84%)
Title                                    : FHD - Filmbol.org
Writing library                          : x264 core 148 r2638 7599210
Encoding settings                        : cabac=1 / ref=5 / deblock=1:-1:-1 / analyse=0x3:0x113 / me=hex / subme=7 / psy=1 / psy_rd=0.99:0.01 / mixed_ref=1 / me_range=16 / chroma_me=1 / trellis=1 / 8x8dct=1 / cqm=0 / deadzone=21,11 / fast_pskip=0 / chroma_qp_offset=-3 / threads=12 / lookahead_threads=2 / sliced_threads=0 / nr=0 / decimate=1 / interlaced=0 / bluray_compat=0 / constrained_intra=0 / bframes=3 / b_pyramid=2 / b_adapt=2 / b_bias=0 / direct=3 / weightb=1 / open_gop=0 / weightp=2 / keyint=240 / keyint_min=23 / scenecut=40 / intra_refresh=0 / rc_lookahead=40 / rc=crf / mbtree=1 / crf=18.5 / qcomp=0.60 / qpmin=0 / qpmax=69 / qpstep=4 / vbv_maxrate=62500 / vbv_bufsize=78125 / crf_max=0.0 / nal_hrd=none / filler=0 / ip_ratio=1.40 / aq=1:1.00
Default                                  : Yes
Forced                                   : No

Audio #1
ID                                       : 2
Format                                   : AC-3
Format/Info                              : Audio Coding 3
Commercial name                          : Dolby Digital
Codec ID                                 : A_AC3
Duration                                 : 1 h 32 min
Bit rate mode                            : Constant
Bit rate                                 : 192 kb/s
Channel(s)                               : 2 channels
Channel layout                           : L R
Sampling rate                            : 48.0 kHz
Frame rate                               : 31.250 FPS (1536 SPF)
Compression mode                         : Lossy
Stream size                              : 127 MiB (2%)
Title                                    : Türkçe - Filmbol.org
Language                                 : Turkish
Service kind                             : Complete Main
Default                                  : Yes
Forced                                   : No

Audio #2
ID                                       : 3
Format                                   : DTS
Format/Info                              : Digital Theater Systems
Codec ID                                 : A_DTS
Duration                                 : 1 h 32 min
Bit rate mode                            : Constant
Bit rate                                 : 1 509 kb/s
Channel(s)                               : 6 channels
Channel layout                           : C L R Ls Rs LFE
Sampling rate                            : 48.0 kHz
Frame rate                               : 93.750 FPS (512 SPF)
Bit depth                                : 16 bits
Compression mode                         : Lossy
Stream size                              : 998 MiB (14%)
Title                                    : Orijinal Dil - Filmbol.org
Language                                 : English
Default                                  : No
Forced                                   : No

Text
ID                                       : 4
Format                                   : UTF-8
Codec ID                                 : S_TEXT/UTF8
Codec ID/Info                            : UTF-8 Plain Text
Duration                                 : 17 h 9 min
Bit rate                                 : 3 b/s
Count of elements                        : 756
Stream size                              : 25.2 KiB (0%)
Title                                    : Türkçe - Filmbol.org
Language                                 : Turkish
Default                                  : No
Forced                                   : No

Film Detayları


 Kurtarıcı

 Kurtarıcı

 Kurtarıcı


Film Fragmanı


Film İndir


Rar Şifresi: filmbol.org










Şuan Offine!
Rapor Et!
Şuan Offine!
yucelikx Üye
*
Üye
  • Konular0
  • Mesajlar14
  • Rep puanı 0
Teşekkürler.
Şuan Offine!
Rapor Et!
Şuan Offine!
kaydee Süper Üye
***
Super Üye
  • Konular0
  • Mesajlar339
  • Rep puanı 0
Teşekkürler.
Şuan Online!
Rapor Et!
Şuan Online!
Yusuf 00 Premium Üye
****
  • Konular17
  • Mesajlar237
  • Rep puanı 46
Teşekkürler.
Şuan Online!
Rapor Et!
Şuan Online!
Yusuf 00 Premium Üye
****
  • Konular17
  • Mesajlar237
  • Rep puanı 46
Filmin süresinde yanlışlık var 17 saat 10 dakika gösteriyor Filmin başında flilmi gösteriyor sonrası 16 saat boşluk var


Hızlı Menü: