⤤ Premium'a Yükselt
Filmbol Forum Film İndir 720P v Mike ve Dave: Ah Bir Sevgili Yapsak (Mike and Dave Need Wedding Dates) - 2016 - TR+ORG - 720P | tt2823054

Filmbol TV kullanıma açıldı. Bu adresten giriş yapabilirsin: Giriş





Mike ve Dave: Ah Bir Sevgili Yapsak (Mike and Dave Need Wedding Dates) - 2016 - TR+ORG - 720P | tt2823054
BroserBros
Mike ve Dave: Ah Bir Sevgili Yapsak (Mike and Dave Need Wedding Dates) - 2016 - TR+ORG - 720P | tt2823054
3
1431
  • Derecelendirme: 0/5 - 0 oy
  • 1
  • 2
  • 3
  • 4
  • 5
Konuyu Okuyanlar:1 Ziyaretçi
Şuan Online!
Filmin Yayınlanma Tarihi: 2016 
WWW
Rapor Et!
Şuan Online!
BroserBros Kurucu Admin
*******
Admin



 Mike ve Dave: Ah Bir Sevgili Yapsak



Hayatları “partilemekle geçiren” iki kardeş Mike ve Dave, Hawaii’de kız kardeşlerinin düğününe beraber gidecek partner arayışındadırlar. Zira aile günü birlik ya da tek gecelik ilişkilerini değil, doğru düzgün birer kız arkadaşla gelmelerini istemektedir. Düğünde sarhoş olup, taşkınlık yapmamaları için baskı yapan ailenin sözünü tutan Mike ve Dave bu terbiyeli eşleri bulmak için Craigslist’e başvururlar! Ve internete albenisi yüksek bir ilan koyarlar. İlan internette öyle hızlı yayılır ki, ikili başvuruları elerken oldukça zorlanır. Seçmeler boyunca güzel kızlarla, pasaklı kızlarla, tuhaf kızlarla, paranoyak kızlarla ve kavgacı kızlarla tanışırlar, aynı zamanda erkeklere benzeyen ikiz kızlarla ve aslında erkek olan kızlarla da. Fakat Tatiana ve Alice bu çılgın erkek kardeşleri etkileyen kızlar olacaktır…
Yönetmenliğini Jake Szymanski’nin üstlendiği filmin senaristleri ise Andrew J. Cohen ve Brendan O’Brien. Filmin başrollerinde sevilen komedi oyuncusu Zac Efron, Adam Devine, Anna Kendrick ve Aubrey Plaza yer alıyor.

Mike ve Dave: Ah Bir Sevgili Yapsak (2016) (Mike and Dave Need Wedding Dates) | tt2823054 Filmi Imdb'den 90,000 kişi tarafından oylandı ve 6,0 puan aldı. Bu film için editör puanı %71 olarak belirlendi. İyi Seyirler!

Teknik Detaylar

Kod :
General
Unique ID                                : 254081529091673572355102942452418479771 (0xBF265290A08C7789CA46EE4EFAE2069B)
Complete name                            : C:\Users\Administrator\Desktop\2\Mike.ve.Dave.Ah.Bir.Sevgili.Yapsak.2016.720p.BluRay.x264.TR.ENG.Filmbol.mkv
Format                                   : Matroska
Format version                           : Version 4
File size                                : 1.01 GiB
Duration                                 : 1 h 38 min
Overall bit rate                         : 1 462 kb/s
Movie name                               : Mike ve Dave: Ah Bir Sevgili Yapsak - Mike And Dave Need Wedding Dates - 2016 | Filmbol.org
Encoded date                             : UTC 2021-09-11 12:44:24
Writing application                      : mkvmerge v61.0.0 ('So') 64-bit
Writing library                          : libebml v1.4.2 + libmatroska v1.6.4

Video
ID                                       : 1
Format                                   : AVC
Format/Info                              : Advanced Video Codec
Format profile                           : [email protected]
Format settings                          : CABAC / 4 Ref Frames
Format settings, CABAC                   : Yes
Format settings, Reference frames        : 4 frames
Codec ID                                 : V_MPEG4/ISO/AVC
Duration                                 : 1 h 38 min
Bit rate                                 : 900 kb/s
Width                                    : 1 280 pixels
Height                                   : 534 pixels
Display aspect ratio                     : 2.40:1
Original display aspect ratio            : 2.40:1
Frame rate mode                          : Constant
Frame rate                               : 23.976 (24000/1001) FPS
Color space                              : YUV
Chroma subsampling                       : 4:2:0
Bit depth                                : 8 bits
Scan type                                : Progressive
Bits/(Pixel*Frame)                       : 0.055
Stream size                              : 634 MiB (62%)
Title                                    : 720P - Filmbol.org
Writing library                          : x264 core 148
Encoding settings                        : cabac=1 / ref=4 / deblock=1:-1:-1 / analyse=0x3:0x133 / me=umh / subme=9 / psy=1 / psy_rd=1.00:0.15 / mixed_ref=1 / me_range=24 / chroma_me=1 / trellis=2 / 8x8dct=1 / cqm=0 / deadzone=21,11 / fast_pskip=0 / chroma_qp_offset=-3 / threads=12 / lookahead_threads=1 / sliced_threads=0 / nr=0 / decimate=1 / interlaced=0 / bluray_compat=0 / constrained_intra=0 / bframes=3 / b_pyramid=2 / b_adapt=2 / b_bias=0 / direct=3 / weightb=1 / open_gop=0 / weightp=2 / keyint=250 / keyint_min=23 / scenecut=40 / intra_refresh=0 / rc_lookahead=60 / rc=2pass / mbtree=1 / bitrate=900 / ratetol=1.0 / qcomp=0.60 / qpmin=0 / qpmax=69 / qpstep=4 / cplxblur=20.0 / qblur=0.5 / vbv_maxrate=31250 / vbv_bufsize=31250 / nal_hrd=none / filler=0 / ip_ratio=1.40 / aq=1:1.00
Default                                  : Yes
Forced                                   : No

Audio #1
ID                                       : 2
Format                                   : AC-3
Format/Info                              : Audio Coding 3
Commercial name                          : Dolby Digital
Codec ID                                 : A_AC3
Duration                                 : 1 h 38 min
Bit rate mode                            : Constant
Bit rate                                 : 448 kb/s
Channel(s)                               : 6 channels
Channel layout                           : L R C LFE Ls Rs
Sampling rate                            : 48.0 kHz
Frame rate                               : 31.250 FPS (1536 SPF)
Compression mode                         : Lossy
Delay relative to video                  : -43 ms
Stream size                              : 316 MiB (31%)
Title                                    : Türkçe - Filmbol.org
Language                                 : Turkish
Service kind                             : Complete Main
Default                                  : Yes
Forced                                   : No

Audio #2
ID                                       : 3
Format                                   : AAC LC
Format/Info                              : Advanced Audio Codec Low Complexity
Codec ID                                 : A_AAC-2
Duration                                 : 1 h 38 min
Bit rate                                 : 112 kb/s
Channel(s)                               : 2 channels
Channel layout                           : L R
Sampling rate                            : 48.0 kHz
Frame rate                               : 46.875 FPS (1024 SPF)
Compression mode                         : Lossy
Delay relative to video                  : -43 ms
Stream size                              : 78.8 MiB (8%)
Title                                    : Orijinal Dil - Filmbol.org
Language                                 : English
Default                                  : No
Forced                                   : No

Text
ID                                       : 4
Format                                   : UTF-8
Codec ID                                 : S_TEXT/UTF8
Codec ID/Info                            : UTF-8 Plain Text
Duration                                 : 1 h 37 min
Bit rate                                 : 92 b/s
Count of elements                        : 2176
Stream size                              : 66.1 KiB (0%)
Title                                    : Türkçe - Filmbol.org
Language                                 : Turkish
Default                                  : No
Forced                                   : No

Film Detayları


 Mike ve Dave: Ah Bir Sevgili Yapsak

 Mike ve Dave: Ah Bir Sevgili Yapsak

 Mike ve Dave: Ah Bir Sevgili Yapsak


Film Fragmanı


Film İndir


Rar Şifresi: filmbol.org


Uptobox ile indir

1Fichier ile indir

1Fichier'den İndiremiyor musun? Tıklayın!












Şuan Offine!
Rapor Et!
Şuan Offine!
merve320 Uzman Üye
**
Uzman Üye
  • Konular0
  • Mesajlar24
  • Rep puanı 0
Teşekkürler
Şuan Offine!
Rapor Et!
Şuan Offine!
Osmaniyeli80 Üye
*
Üye
  • Konular0
  • Mesajlar1
  • Rep puanı 0
Guzel
Şuan Online!
Rapor Et!
Şuan Online!
BroserBros Kurucu Admin
*******
Admin
13.09.2021 Yönetici Notu:

Kırık linkler kontrol edildi, kaldırıldı ve yenilendi. Tüm linkler tamamen çalışır durumda.


Hızlı Menü: