Filmbol Forum Film İndir BRRip XviD v Kovboylar ve Uzaylılar (Cowboys & Aliens) - 2011 - TR - BRRip XviD | tt0409847
Bildirimi Kapat
Üyelik alımları açıldı.


Bildirimi Kapat
Mega linklerinin şikayet edilmemesi için global erişime kapatıp sadece yorum yapanlara açıyoruz. Bu linkleri gizleme işlemini mecburen yapıyoruz ve yorum yapmanızın siteye değil size faydası vardır. Teşekkürler yazmayı çok görüp, Random/Spam/Anlamsız mesajlar atarak forumu kirletip Mega linklerini açmaya çalışan kullanıcılara süresiz ban atacağız.

Premium Üyelik Al

Kovboylar ve Uzaylılar (Cowboys & Aliens) - 2011 - TR - BRRip XviD | tt0409847
TheSteeL
Kovboylar ve Uzaylılar (Cowboys & Aliens) - 2011 - TR - BRRip XviD | tt0409847
4
70
  • Derecelendirme: 0/5 - 0 oy
  • 1
  • 2
  • 3
  • 4
  • 5
Konuyu Okuyanlar:4 Ziyaretçi
Şuan Online!
Filmin Yayınlanma Tarihi: 2011 
WWW
Şuan Online!
TheSteeL Süper Moderatör
*****
Süper Moderatör



 Kovboylar ve Uzaylılar



Günümüzde uzaylıları bizden gelişmiş teknoloji ve yapıları bulunan canlılar olarak hayal ederiz. Eğer 1800'lü yıllarda yaşasaydınız uzaylıları yine uzaylıları sizden daha teknolojik canlılar olarak hayal ederdiniz. Tabii hayal gücünüz kadar. Fakat bugün bile bunca nükleer füze, gelişmiş teknoloji ve silahlarınızı varken bir uzaylı istilasından korkarken, 1800'lü yıllarda gelebilecek bir uzaylı istilasını kim önleyebilir, kovboylar mı? Bilim Kurgu, Aksiyon ve tabii ki bir Kovboy filmi olan başarılı yapıt, türünün tek örneği.

Kovboylar ve Uzaylılar (2011) (Cowboys & Aliens) | tt0409847 Filmi Imdb'den 210000 kişi tarafından oylandı ve 6,0 puan aldı. Bu film için editör puanı %68 olarak belirlendi. İyi Seyirler!

Teknik Detaylar

Kod :
General
Unique ID                                : 239093496478866506682139603163331647136 (0xB3DFBB810951F666487D620E2A8F56A0)
Complete name                            : /home/TheSteel/Desktop/3/Kovboylar.Ve.Uzaylılar.2011.BRRip.Xvid.TR.Filmbol.avi
Format                                   : Matroska
Format version                           : Version 4
File size                                : 693 MiB
Duration                                 : 1 h 58 min
Overall bit rate                         : 819 kb/s
Encoded date                             : UTC 2021-05-23 10:38:41
Writing application                      : mkvmerge v31.0.0 ('Dolores In A Shoestand') 64-bit
Writing library                          : libebml v1.3.6 + libmatroska v1.4.9
FileExtension_Invalid                    : mkv mk3d mka mks

Video
ID                                       : 1
Format                                   : MPEG-4 Visual
Format profile                           : Advanced [email protected]
Format settings                          : BVOP2 / Custom Matrix
Format settings, BVOP                    : 2
Format settings, QPel                    : No
Format settings, GMC                     : No warppoints
Format settings, Matrix                  : Custom
Codec ID                                 : V_MS/VFW/FOURCC / XVID
Codec ID/Hint                            : XviD
Duration                                 : 1 h 58 min
Bit rate                                 : 689 kb/s
Width                                    : 640 pixels
Height                                   : 272 pixels
Display aspect ratio                     : 2.35:1
Frame rate mode                          : Constant
Frame rate                               : 23.976 (24000/1001) FPS
Color space                              : YUV
Chroma subsampling                       : 4:2:0
Bit depth                                : 8 bits
Scan type                                : Progressive
Compression mode                         : Lossy
Bits/(Pixel*Frame)                       : 0.165
Stream size                              : 583 MiB (84%)
Title                                    : Filmbol.org
Writing library                          : XviD 1.2.1 (UTC 2008-12-04)
Default                                  : Yes
Forced                                   : No

Audio
ID                                       : 2
Format                                   : MPEG Audio
Format version                           : Version 1
Format profile                           : Layer 3
Format settings                          : Joint stereo / MS Stereo
Codec ID                                 : A_MPEG/L3
Codec ID/Hint                            : MP3
Duration                                 : 1 h 58 min
Bit rate mode                            : Constant
Bit rate                                 : 128 kb/s
Channel(s)                               : 2 channels
Sampling rate                            : 48.0 kHz
Frame rate                               : 41.667 FPS (1152 SPF)
Compression mode                         : Lossy
Stream size                              : 108 MiB (16%)
Title                                    : Türkçe - Filmbol.org
Writing library                          : LAME3.98r
Encoding settings                        : -m j -V 4 -q 2 -lowpass 17 -b 128
Language                                 : Turkish
Default                                  : Yes
Forced                                   : No

Film Detayları


 Kovboylar ve Uzaylılar

 Kovboylar ve Uzaylılar

 Kovboylar ve Uzaylılar


Film Fragmanı


Film Detayları


Uptobox ile indir

1Fichier ile indir

1Fichier'den İndiremiyor musun? Tıklayın!


Mega linki şuan da gizli. Kullanıma açmak için konuya yorum yapın ve ardından sayfayı yenileyin.

Mega


Bunun için üzgünüz ancak, bu linke sadece premium üyeler erişebilir.

Filmbol Cloud





Şuan Offine!
Şuan Offine!
Furkan61 Cezalı Üye

  • Konular0
  • Mesajlar329
Teşekkürler
Şuan Online!
Şuan Online!
TheSteeL Süper Moderatör
*****
Süper Moderatör

(24-05-2021, Saat: 00:38)Furkan61 Adlı Kullanıcıdan Alıntı: Teşekkürler
İyi Seyirler
Şuan Offine!
Şuan Offine!
Duman51 Yeni Üye
*
Üye

  • Konular0
  • Mesajlar1
  • Rep puanı 0
Böyle filmlerin devamını bekliyoruz
Şuan Online!
Şuan Online!
TheSteeL Süper Moderatör
*****
Süper Moderatör

(01-06-2021, Saat: 23:57)Duman51 Adlı Kullanıcıdan Alıntı: Böyle filmlerin devamını bekliyoruz
Elbette İyi Seyirler


Hızlı Menü: