⤤ Premium'a Yükselt

Ziyaretçi, diziler sık sık telif aldığı için artık MEGA linkleri eklememeye karar verdik. Yeni dizilerde mega linkleri görmeyeceksin. Bu bir hata olmadığı için, lütfen raporlama. x

Filmbol Forum Film İndir 720P v İnfazcı (The Punisher) - 2004 - TR+ORG - 720P | tt0330793



İnfazcı (The Punisher) - 2004 - TR+ORG - 720P | tt0330793
TheSteeL
İnfazcı (The Punisher) - 2004 - TR+ORG - 720P | tt0330793
0
204
  • Derecelendirme: 0/5 - 0 oy
  • 1
  • 2
  • 3
  • 4
  • 5
Konuyu Okuyanlar:1 Ziyaretçi
Şuan Online!
Filmin Yayınlanma Tarihi: 2004 
WWW
Rapor Et!
Şuan Online!
TheSteeL Chief Executive Officer
******
CEO



 İnfazcı



Frank iyi bir geçmişe sahip temiz bir ajandı. Kariyeri başarılı ve güçlü olsa da, zamanla yaşlandığı için işini bırakma kararı aldı. Fakat ilerleyen zamanlarda Frank yara verdiği suçluların peşine düştüğünü fark etti. Yine de ailesi ile yaşamına devam etse de, bu acımasız katillerin ailesini öldürmesi ile zıvanadan çıkmıştı. Kânuna gitti, yardım istedi, ancak sonuç çıkmadı. Bu yüzden Frank kendi adaletini kendi sağlama kararı aldı. Bundan sonra suçlulara en ağır cezayı kendisi kesecek ve bir ölüm makinesine dönüşecektir...

İnfazcı (2004) (The Punisher) | tt0330793 Filmi Imdb'den 151500 kişi tarafından oylandı ve 6,4 puan aldı. Bu film için editör puanı %70 olarak belirlendi. İyi Seyirler!

Teknik Detaylar

Kod :
General
Unique ID                                : 91776572261413024642629447809946405902 (0x450B865DF49CD585E0A32A65A948CC0E)
Complete name                            : /home/TheSteel/Desktop/3/İnfazcı.2004.720P.Bluray.X264.TR.ENG.Filmbol.mkv
Format                                   : Matroska
Format version                           : Version 4
File size                                : 1.05 GiB
Duration                                 : 2 h 3 min
Overall bit rate                         : 1 217 kb/s
Encoded date                             : UTC 2021-05-20 10:41:09
Writing application                      : mkvmerge v31.0.0 ('Dolores In A Shoestand') 64-bit
Writing library                          : libebml v1.3.6 + libmatroska v1.4.9

Video
ID                                       : 1
Format                                   : AVC
Format/Info                              : Advanced Video Codec
Format profile                           : [email protected]
Format settings                          : CABAC / 4 Ref Frames
Format settings, CABAC                   : Yes
Format settings, Reference frames        : 4 frames
Codec ID                                 : V_MPEG4/ISO/AVC
Duration                                 : 2 h 3 min
Bit rate                                 : 900 kb/s
Width                                    : 1 280 pixels
Height                                   : 544 pixels
Display aspect ratio                     : 2.35:1
Frame rate mode                          : Constant
Frame rate                               : 23.976 (24000/1001) FPS
Color space                              : YUV
Chroma subsampling                       : 4:2:0
Bit depth                                : 8 bits
Scan type                                : Progressive
Bits/(Pixel*Frame)                       : 0.054
Stream size                              : 795 MiB (74%)
Title                                    : 720P - Filmbol.org
Writing library                          : x264 core 148
Encoding settings                        : cabac=1 / ref=4 / deblock=1:-1:-1 / analyse=0x3:0x133 / me=umh / subme=9 / psy=1 / psy_rd=1.00:0.15 / mixed_ref=1 / me_range=24 / chroma_me=1 / trellis=2 / 8x8dct=1 / cqm=0 / deadzone=21,11 / fast_pskip=0 / chroma_qp_offset=-3 / threads=12 / lookahead_threads=1 / sliced_threads=0 / nr=0 / decimate=1 / interlaced=0 / bluray_compat=0 / constrained_intra=0 / bframes=3 / b_pyramid=2 / b_adapt=2 / b_bias=0 / direct=3 / weightb=1 / open_gop=0 / weightp=2 / keyint=250 / keyint_min=23 / scenecut=40 / intra_refresh=0 / rc_lookahead=60 / rc=2pass / mbtree=1 / bitrate=900 / ratetol=1.0 / qcomp=0.60 / qpmin=0 / qpmax=69 / qpstep=4 / cplxblur=20.0 / qblur=0.5 / vbv_maxrate=31250 / vbv_bufsize=31250 / nal_hrd=none / filler=0 / ip_ratio=1.40 / aq=1:1.00
Default                                  : Yes
Forced                                   : No

Audio #1
ID                                       : 2
Format                                   : AC-3
Format/Info                              : Audio Coding 3
Commercial name                          : Dolby Digital
Codec ID                                 : A_AC3
Duration                                 : 2 h 3 min
Bit rate mode                            : Constant
Bit rate                                 : 192 kb/s
Channel(s)                               : 2 channels
Channel layout                           : L R
Sampling rate                            : 48.0 kHz
Frame rate                               : 31.250 FPS (1536 SPF)
Compression mode                         : Lossy
Delay relative to video                  : 957 ms
Stream size                              : 170 MiB (16%)
Title                                    : Türkçe - Filmbol.org
Language                                 : Turkish
Service kind                             : Complete Main
Default                                  : Yes
Forced                                   : No

Audio #2
ID                                       : 3
Format                                   : AAC LC
Format/Info                              : Advanced Audio Codec Low Complexity
Codec ID                                 : A_AAC-2
Duration                                 : 2 h 3 min
Bit rate                                 : 123 kb/s
Channel(s)                               : 2 channels
Channel layout                           : L R
Sampling rate                            : 48.0 kHz
Frame rate                               : 46.875 FPS (1024 SPF)
Compression mode                         : Lossy
Delay relative to video                  : -43 ms
Stream size                              : 109 MiB (10%)
Title                                    : Orjinal Dil - Filmbol.org
Language                                 : English
Default                                  : No
Forced                                   : No

Film Detayları


 İnfazcı

 İnfazcı

 İnfazcı


Film Fragmanı


Film İndir


Rar Şifresi: filmbol.org


Uptobox ile indir














Hızlı Menü: