Filmbol Forum Film İndir BRRip XviD v Rogue One: Bir Star Wars Hikâyesi (Rogue One) - 2016 - TR - BRRip XviD | tt3748528
Bildirimi Kapat
Üyelik alımları açıldı.


Bildirimi Kapat
Mega linklerinin şikayet edilmemesi için global erişime kapatıp sadece yorum yapanlara açıyoruz. Bu linkleri gizleme işlemini mecburen yapıyoruz ve yorum yapmanızın siteye değil size faydası vardır. Teşekkürler yazmayı çok görüp, Random/Spam/Anlamsız mesajlar atarak forumu kirletip Mega linklerini açmaya çalışan kullanıcılara süresiz ban atacağız.

Premium Üyelik Al

Rogue One: Bir Star Wars Hikâyesi (Rogue One) - 2016 - TR - BRRip XviD | tt3748528
TheSteeL
Rogue One: Bir Star Wars Hikâyesi (Rogue One) - 2016 - TR - BRRip XviD | tt3748528
0
60
  • Derecelendirme: 0/5 - 0 oy
  • 1
  • 2
  • 3
  • 4
  • 5
Konuyu Okuyanlar:1 Ziyaretçi
Şuan Online!
Filmin Yayınlanma Tarihi: 2016 
WWW
Şuan Online!
TheSteeL Süper Moderatör
*****
Süper Moderatör



 Rogue One: Bir Star Wars Hikâyesi



Yıldız Savaşlarının bir ara filmi olan Rogue One, Yıldız Savaşları Bölüm 4'den öncesine odaklanıyor. Çok önemli bir soygun görevi alan ekip, karşısına Death Star'ı alacaktır. Ancak çok dikkatli olması gereklidir. Aksi halde bu adamla başa çıkmak imkansızdır... Yıldız Savaşları'nın aynı zamanda ilk ara filmi olan Rogue One, bir ara filmden daha fazlasını çıkarıyor.

Rogue One: Bir Star Wars Hikâyesi (2016) (Rogue One) | tt3748528 Filmi Imdb'den 567500 kişi tarafından oylandı ve 7,8 puan aldı. Bu film için editör puanı %86 olarak belirlendi. İyi Seyirler!

Teknik Detaylar

Kod :
General
Unique ID                                : 8477798240882854627967697951157528389 (0x660C3B9836A75CD16AE9E642A4A2745)
Complete name                            : /home/TheSteel/Desktop/8/Rogue.One.Bir.Star.Wars.Hikayesi.2016.BRRip.XviD.TR.Filmbol.avi
Format                                   : Matroska
Format version                           : Version 4
File size                                : 1.28 GiB
Duration                                 : 2 h 13 min
Overall bit rate                         : 1 365 kb/s
Encoded date                             : UTC 2021-05-02 15:33:01
Writing application                      : mkvmerge v31.0.0 ('Dolores In A Shoestand') 64-bit
Writing library                          : libebml v1.3.6 + libmatroska v1.4.9
FileExtension_Invalid                    : mkv mk3d mka mks

Video
ID                                       : 1
Format                                   : MPEG-4 Visual
Format profile                           : Advanced [email protected]
Format settings                          : BVOP2
Format settings, BVOP                    : 2
Format settings, QPel                    : No
Format settings, GMC                     : No warppoints
Format settings, Matrix                  : Default (H.263)
Muxing mode                              : Packed bitstream
Codec ID                                 : V_MS/VFW/FOURCC / XVID
Codec ID/Hint                            : XviD
Duration                                 : 2 h 13 min
Bit rate                                 : 1 235 kb/s
Width                                    : 720 pixels
Height                                   : 304 pixels
Display aspect ratio                     : 2.35:1
Frame rate mode                          : Constant
Frame rate                               : 23.976 (23976/1000) FPS
Color space                              : YUV
Chroma subsampling                       : 4:2:0
Bit depth                                : 8 bits
Scan type                                : Progressive
Compression mode                         : Lossy
Bits/(Pixel*Frame)                       : 0.235
Stream size                              : 1.16 GiB (90%)
Title                                    : XVİD - Filmbol.org
Writing library                          : XviD 66
Default                                  : Yes
Forced                                   : No

Audio
ID                                       : 2
Format                                   : MPEG Audio
Format version                           : Version 1
Format profile                           : Layer 3
Format settings                          : Joint stereo / MS Stereo
Codec ID                                 : A_MPEG/L3
Codec ID/Hint                            : MP3
Duration                                 : 2 h 13 min
Bit rate mode                            : Constant
Bit rate                                 : 128 kb/s
Channel(s)                               : 2 channels
Sampling rate                            : 48.0 kHz
Frame rate                               : 41.667 FPS (1152 SPF)
Compression mode                         : Lossy
Stream size                              : 123 MiB (9%)
Title                                    : Türkçe - Filmbol.org
Default                                  : Yes
Forced                                   : No

Film Detayları


 Rogue One: Bir Star Wars Hikâyesi

 Rogue One: Bir Star Wars Hikâyesi

 Rogue One: Bir Star Wars Hikâyesi


Film Fragmanı


Film Detayları


Uptobox ile indir

1Fichier ile indir

1Fichier'den İndiremiyor musun? Tıklayın!


Mega linki şuan da gizli. Kullanıma açmak için konuya yorum yapın ve ardından sayfayı yenileyin.

Mega


Bunun için üzgünüz ancak, bu linke sadece premium üyeler erişebilir.

Filmbol Cloud







Hızlı Menü: