Filmbol Forum Film İndir 720P v Zamanın Ötesinde (Predestination) Türkçe Dublaj m720P İndir
Mega linklerinin şikayet edilmemesi için global erişime kapatıp sadece yorum yapanlara açıyoruz. Bu linkleri gizleme işlemini mecburen yapıyoruz ve yorum yapmanızın siteye değil size faydası vardır. Teşekürler yazmayı çok görüp, Random/Spam mesajlar atarak Mega linklerini açmaya çalışan kullanıcılara önce süresiz ban, devam ederse IP ban atacağız.
Filmbol'da moderatör olmak ister misiniz? Bizimle iletişime geçmek için tıklayın!
Zamanın Ötesinde (Predestination) Türkçe Dublaj m720P İndir
BroserBros
Zamanın Ötesinde (Predestination) Türkçe Dublaj m720P İndir
2
1992
  • Derecelendirme: 0/5 - 0 oy
  • 1
  • 2
  • 3
  • 4
  • 5
Konuyu Okuyanlar:1 Ziyaretçi
Şuan Online!
Filmin Yayınlanma Tarihi: 2014 
WWW
Şuan Online!
BroserBros Kurucu Admin
*******
Admin





rarsifresi


filmbol.org





Teknik Detaylar
Kod :
Format                                   : Matroska
Format version                           : Version 4 / Version 2
File size                                : 780 MiB
Duration                                 : 1h 37mn
Overall bit rate                         : 1 114 Kbps
Movie name                               : Zamanın Ötesinde - Filmbol.org

Video
ID                                       : 1
Format                                   : AVC
Format/Info                              : Advanced Video Codec
Format profile                           : [email protected]
Format settings, CABAC                   : Yes
Format settings, ReFrames                : 4 frames
Codec ID                                 : V_MPEG4/ISO/AVC
Duration                                 : 1h 37mn
Bit rate                                 : 985 Kbps
Width                                    : 1 280 pixels
Height                                   : 534 pixels
Display aspect ratio                     : 2.40:1
Frame rate mode                          : Constant
Frame rate                               : 23.976 fps
Color space                              : YUV
Chroma subsampling                       : 4:2:0
Bit depth                                : 8 bits
Scan type                                : Progressive
Bits/(Pixel*Frame)                       : 0.060
Stream size                              : 674 MiB (87%)
Title                                    : 720P - Filmbol.org
Writing library                          : x264 core 142 r2479 dd79a61
Default                                  : Yes
Forced                                   : No
Color primaries                          : BT.709
Matrix coefficients                      : BT.709

Audio
ID                                       : 2
Format                                   : MPEG Audio
Format version                           : Version 1
Format profile                           : Layer 3
Mode                                     : Joint stereo
Mode extension                           : MS Stereo
Codec ID                                 : A_MPEG/L3
Codec ID/Hint                            : MP3
Duration                                 : 1h 37mn
Bit rate mode                            : Constant
Bit rate                                 : 128 Kbps
Channel(s)                               : 2 channels
Sampling rate                            : 48.0 KHz
Compression mode                         : Lossy
Stream size                              : 89.6 MiB (11%)
Title                                    : Türkçe - Filmbol.org
Writing library                          : LAME3.99r
Encoding settings                        : -m j -V 4 -q 2 -lowpass 17 -b 128
Language                                 : Turkish
Default                                  : Yes
Forced                                   : No



Film Detayları


Zamanin Otesinde

Zamanin Otesinde

Zamanin Otesinde

Zamanin Otesinde

Zamanin Otesinde


Film Fragmanı


Film Detayları

Mini 720P İndir


Mega linki şuan da gizli. Kullanıma açmak için konuya yorum yapın ve ardından sayfayı yenileyin.

Mega


Uptobox ile indir

CloudRu ile indir

Şuan Offine!
Şuan Offine!
Last Night Hero Yeni Üye
*
Üye

  • Konular0
  • Mesajlar2
  • Rep puanı 0
Exclamation Blush İyi
Şuan Offine!
Şuan Offine!
stb Süper Üye
***
Super Üye

  • Konular0
  • Mesajlar35
  • Rep puanı 0
teşekkürler


Konu ile Alakalı Benzer Konular
Konular Yazar Yorumlar Okunma Son Yorum
Filmin Yayınlanma Tarihi: 2015
Enigma (The Imitation Game) Türkçe Dublaj m720P İndir BroserBros 3 3,113 , Saat: 15:32
Son Yorum: algül
Filmin Yayınlanma Tarihi: 1991
Kuzuların Sessizliği (The Silence of the Lambs) Türkçe Dublaj BLURAY 720P indir BroserBros 2 329 03-05-2021, Saat: 15:03
Son Yorum: BürkütFenrir
Filmin Yayınlanma Tarihi: 2017
Doğu Ekspresinde Cinayet (Murder on the Orient Express) Türkçe Dublaj m720P İndir BroserBros 2 645 03-05-2021, Saat: 15:01
Son Yorum: BürkütFenrir
Filmin Yayınlanma Tarihi: 2019
IO (2019) Türkçe Dublaj BLURAY m720P İndir BroserBros 4 803 23-04-2021, Saat: 09:36
Son Yorum: fantom
Filmin Yayınlanma Tarihi: 2019
Angry Birds Filmi 2 (The Angry Birds Movie 2) Türkçe Dublaj 720P İndir BroserBros 5 637 15-04-2021, Saat: 15:30
Son Yorum: barakali

Hızlı Menü: