Filmbol Forum Film İndir FHD - FULL HD v Yip Man (Yip Man) - 2008 - TR+ORG - FHD - x264 | tt1220719

Premium Üyelik Al

Bildirimi Kapat
Mega linklerinin şikayet edilmemesi için global erişime kapatıp sadece yorum yapanlara açıyoruz. Bu linkleri gizleme işlemini mecburen yapıyoruz ve yorum yapmanızın siteye değil size faydası vardır. Teşekkürler yazmayı çok görüp, Random/Spam/Anlamsız mesajlar atarak forumu kirletip Mega linklerini açmaya çalışan kullanıcılara süresiz ban atacağız.


Yip Man (Yip Man) - 2008 - TR+ORG - FHD - x264 | tt1220719
TheSteeL
Yip Man (Yip Man) - 2008 - TR+ORG - FHD - x264 | tt1220719
0
54
  • Derecelendirme: 0/5 - 0 oy
  • 1
  • 2
  • 3
  • 4
  • 5
Konuyu Okuyanlar:1 Ziyaretçi
Şuan Online!
Filmin Yayınlanma Tarihi: 2008 
WWW
Şuan Online!
TheSteeL Süper Moderatör
*****
Süper Moderatör



 Yip Man



Bruce Lee'nin yaratıcısı Yip Man'e odaklanan film yarı biyografik ve aksiyon sahneleri ile karşımıza çıkıyor. Yip Man Çin'de yaygın olarak kullanılan WingChun dövüş tekniğini mükemmel şekilde kendine has uygulamaktadır. Fakat bir dövüşçü olmak için değil bunu kendini savunmak ve dövüş sanatlarını sevdiği için yapan Yip Man, gösterişi de sevmemektedir. Gelen dövüş tekliflerini reddeder ve her ne kadar kaçsa da, bir gün ülkenin en iyi dövüşçüsü ile dövüşmek zorunda kalır. Yip Man onu alt ettiğinde ünü hızlıca yayılmaya başlar...

Yip Man (2008) (Yip Man) | tt1220719 Filmi Imdb'den 213500 kişi tarafından oylandı ve 8,0 puan aldı. Bu film için editör puanı %82 olarak belirlendi. İyi Seyirler!

Teknik Detaylar

Kod :
General
Unique ID                                : 19571138523510319747094503111047618160 (0xEB943A0D46D6C854C31C1773C559E70)
Complete name                            : /home/TheSteel/Desktop/2/Yip.Man.2008.Bluray.FHD.x264.TR.ENG.Filmbol.mkv
Format                                   : Matroska
Format version                           : Version 4
File size                                : 12.6 GiB
Duration                                 : 1 h 46 min
Overall bit rate mode                    : Variable
Overall bit rate                         : 16.8 Mb/s
Encoded date                             : UTC 2021-04-21 17:31:30
Writing application                      : mkvmerge v31.0.0 ('Dolores In A Shoestand') 64-bit
Writing library                          : libebml v1.3.6 + libmatroska v1.4.9

Video
ID                                       : 1
Format                                   : AVC
Format/Info                              : Advanced Video Codec
Format profile                           : [email protected]
Format settings                          : CABAC / 4 Ref Frames
Format settings, CABAC                   : Yes
Format settings, Reference frames        : 4 frames
Codec ID                                 : V_MPEG4/ISO/AVC
Duration                                 : 1 h 46 min
Bit rate mode                            : Variable
Bit rate                                 : 14.0 Mb/s
Maximum bit rate                         : 30.0 Mb/s
Width                                    : 1 920 pixels
Height                                   : 1 080 pixels
Display aspect ratio                     : 16:9
Frame rate mode                          : Constant
Frame rate                               : 24.000 FPS
Color space                              : YUV
Chroma subsampling                       : 4:2:0
Bit depth                                : 8 bits
Scan type                                : Progressive
Bits/(Pixel*Frame)                       : 0.282
Stream size                              : 10.4 GiB (83%)
Title                                    : FHD - Filmbol.org
Language                                 : Chinese
Default                                  : Yes
Forced                                   : No

Audio #1
ID                                       : 2
Format                                   : AC-3
Format/Info                              : Audio Coding 3
Commercial name                          : Dolby Digital
Codec ID                                 : A_AC3
Duration                                 : 1 h 46 min
Bit rate mode                            : Constant
Bit rate                                 : 448 kb/s
Channel(s)                               : 2 channels
Channel layout                           : L R
Sampling rate                            : 44.1 kHz
Frame rate                               : 28.711 FPS (1536 SPF)
Compression mode                         : Lossy
Stream size                              : 341 MiB (3%)
Title                                    : Türkçe - Filmbol.org
Service kind                             : Complete Main
Default                                  : Yes
Forced                                   : No

Audio #2
ID                                       : 3
Format                                   : DTS XLL
Format/Info                              : Digital Theater Systems
Commercial name                          : DTS-HD Master Audio
Codec ID                                 : A_DTS
Duration                                 : 1 h 46 min
Bit rate mode                            : Variable
Bit rate                                 : 2 437 kb/s
Channel(s)                               : 8 channels
Channel layout                           : C L R LFE Lb Rb Lss Rss
Sampling rate                            : 48.0 kHz
Frame rate                               : 93.750 FPS (512 SPF)
Bit depth                                : 16 bits
Compression mode                         : Lossless
Stream size                              : 1.81 GiB (14%)
Title                                    : Orjinal Dil - Filmbol.org
Language                                 : Chinese
Default                                  : No
Forced                                   : No

Text
ID                                       : 4
Format                                   : UTF-8
Codec ID                                 : S_TEXT/UTF8
Codec ID/Info                            : UTF-8 Plain Text
Duration                                 : 1 h 46 min
Bit rate                                 : 41 b/s
Count of elements                        : 975
Stream size                              : 32.0 KiB (0%)
Title                                    : Türkçe - Filmbol.org
Default                                  : No
Forced                                   : No

Film Detayları


 Yip Man

 Yip Man

 Yip Man


Film Fragmanı


Film Detayları

Bunun için üzgünüz ancak, bu linke sadece premium üyeler erişebilir.

Filmbol Cloud







Hızlı Menü: