Filmbol Forum Film İndir 720P v Berber Dükkanı 3 (Berbershop 3) Türkçe Dublaj m720P İndir
Mega linklerinin şikayet edilmemesi için global erişime kapatıp sadece yorum yapanlara açıyoruz. Bu linkleri gizleme işlemini mecburen yapıyoruz ve yorum yapmanızın siteye değil size faydası vardır. Teşekürler yazmayı çok görüp, Random/Spam mesajlar atarak Mega linklerini açmaya çalışan kullanıcılara önce süresiz ban, devam ederse IP ban atacağız.
Filmbol'da moderatör olmak ister misiniz? Bizimle iletişime geçmek için tıklayın!
Berber Dükkanı 3 (Berbershop 3) Türkçe Dublaj m720P İndir
BroserBros
Berber Dükkanı 3 (Berbershop 3) Türkçe Dublaj m720P İndir
0
945
  • Derecelendirme: 0/5 - 0 oy
  • 1
  • 2
  • 3
  • 4
  • 5
Konuyu Okuyanlar:1 Ziyaretçi
Şuan Online!
Filmin Yayınlanma Tarihi: 2016 
WWW
Şuan Online!
BroserBros Kurucu Admin
*******
Admin





Ses Kodek: AC3


Audio Coding 3 (AC3)

rarsifresi


filmbol.org




Teknik Detaylar

Kod :
General
Format                                   : Matroska
Format version                           : Version 4 / Version 2
File size                                : 978 MiB
Duration                                 : 1h 51mn
Overall bit rate                         : 1 224 Kbps
Movie name                               : BerBershop - Filmbol.org

Video
ID                                       : 1
Format                                   : AVC
Format/Info                              : Advanced Video Codec
Format profile                           : [email protected]
Format settings, CABAC                   : Yes
Format settings, ReFrames                : 5 frames
Codec ID                                 : V_MPEG4/ISO/AVC
Duration                                 : 1h 51mn
Bit rate                                 : 999 Kbps
Width                                    : 1 280 pixels
Height                                   : 720 pixels
Display aspect ratio                     : 16:9
Frame rate mode                          : Constant
Frame rate                               : 23.976 fps
Color space                              : YUV
Chroma subsampling                       : 4:2:0
Bit depth                                : 8 bits
Scan type                                : Progressive
Bits/(Pixel*Frame)                       : 0.045
Stream size                              : 779 MiB (80%)
Title                                    : 720P - Filmbol.org
Default                                  : Yes
Forced                                   : No
Color primaries                          : BT.709
Matrix coefficients                      : BT.709

Audio
ID                                       : 2
Format                                   : AC-3
Format/Info                              : Audio Coding 3
Mode extension                           : CM (complete main)
Format settings, Endianness              : Big
Codec ID                                 : A_AC3
Duration                                 : 1h 51mn
Bit rate mode                            : Constant
Bit rate                                 : 224 Kbps
Channel(s)                               : 2 channels
Channel positions                        : Front: L R
Sampling rate                            : 48.0 KHz
Bit depth                                : 16 bits
Compression mode                         : Lossy
Stream size                              : 179 MiB (18%)
Title                                    : Türkçe - Filmbol.org
Language                                 : Turkish
Default                                  : Yes
Forced                                   : No


Film Detayları


Berbershop 3

Berbershop 3

Berbershop 3

Berbershop 3

Berbershop 3


Film Fragmanı


Film Detayları

Mini 720P İndir


Mega linki şuan da gizli. Kullanıma açmak için konuya yorum yapın ve ardından sayfayı yenileyin.

Mega


Uptobox ile indir

CloudRu ile indir



Konu ile Alakalı Benzer Konular
Konular Yazar Yorumlar Okunma Son Yorum
Filmin Yayınlanma Tarihi: 2015
Enigma (The Imitation Game) Türkçe Dublaj m720P İndir BroserBros 3 3,113 , Saat: 15:32
Son Yorum: algül
Filmin Yayınlanma Tarihi: 1991
Kuzuların Sessizliği (The Silence of the Lambs) Türkçe Dublaj BLURAY 720P indir BroserBros 2 329 03-05-2021, Saat: 15:03
Son Yorum: BürkütFenrir
Filmin Yayınlanma Tarihi: 2017
Doğu Ekspresinde Cinayet (Murder on the Orient Express) Türkçe Dublaj m720P İndir BroserBros 2 645 03-05-2021, Saat: 15:01
Son Yorum: BürkütFenrir
Filmin Yayınlanma Tarihi: 2019
IO (2019) Türkçe Dublaj BLURAY m720P İndir BroserBros 4 803 23-04-2021, Saat: 09:36
Son Yorum: fantom
Filmin Yayınlanma Tarihi: 2019
Angry Birds Filmi 2 (The Angry Birds Movie 2) Türkçe Dublaj 720P İndir BroserBros 5 637 15-04-2021, Saat: 15:30
Son Yorum: barakali

Hızlı Menü: