Filmbol Forum Film İndir BRRip XviD v Timsah Çocuk Arlo (Arlo the Alligator Boy) - 2021 - TR - BRRip XviD | tt13454122

Premium Üyelik Al

Bildirimi Kapat
Mega linklerinin şikayet edilmemesi için global erişime kapatıp sadece yorum yapanlara açıyoruz. Bu linkleri gizleme işlemini mecburen yapıyoruz ve yorum yapmanızın siteye değil size faydası vardır. Teşekkürler yazmayı çok görüp, Random/Spam/Anlamsız mesajlar atarak forumu kirletip Mega linklerini açmaya çalışan kullanıcılara süresiz ban atacağız.


Timsah Çocuk Arlo (Arlo the Alligator Boy) - 2021 - TR - BRRip XviD | tt13454122
TheSteeL
Timsah Çocuk Arlo (Arlo the Alligator Boy) - 2021 - TR - BRRip XviD | tt13454122
0
61
  • Derecelendirme: 0/5 - 0 oy
  • 1
  • 2
  • 3
  • 4
  • 5
Konuyu Okuyanlar:1 Ziyaretçi
Şuan Online!
Filmin Yayınlanma Tarihi: 2021 
WWW
Şuan Online!
TheSteeL Süper Moderatör
*****
Süper Moderatör



 Timsah Çocuk Arlo



Fantastik bir görünüme sahip olan Arlo, timsaha benzer yapısı ve insanı andıran görüntüsü ile sevimli bir canlıdır. Arlo sıradan bir timsah hayatı yaşasa da babasını kaybetmesi onu derinden üzmüştür. Bu yüzden ani bir karar değişikliği ile Arlo babasını bulmak için uzun bir seyahate çıkar. Neyse ki yanında ona yardımcı olabilecek birçok sevimli arkadaşı vardır...

Timsah Çocuk Arlo (2021) (Arlo the Alligator Boy) | tt13454122 Filmi Imdb'den 250 kişi tarafından oylandı ve 7,0 puan aldı. Bu film için editör puanı %66 olarak belirlendi. İyi Seyirler!

Teknik Detaylar

Kod :
General
Unique ID                                : 329728202111577395817290582488728560386 (0xF80F577FEA071A7FAF3017BA92A16302)
Complete name                            : /home/TheSteel/Desktop/4/Timsah.Cocuk.Arlo.2021.HDRip.XViD.TR.Filmbol.avi
Format                                   : Matroska
Format version                           : Version 4
File size                                : 1.09 GiB
Duration                                 : 1 h 32 min
Overall bit rate                         : 1 688 kb/s
Movie name                               : Arlo the Alligator Boy - Timsah Çocuk Arlo - 2021 - Filmbol.org
Encoded date                             : UTC 2021-04-18 21:53:31
Writing application                      : mkvmerge v31.0.0 ('Dolores In A Shoestand') 64-bit
Writing library                          : libebml v1.3.6 + libmatroska v1.4.9
FileExtension_Invalid                    : mkv mk3d mka mks

Video
ID                                       : 1
Format                                   : MPEG-4 Visual
Format profile                           : [email protected]
Format settings, BVOP                    : No
Format settings, QPel                    : No
Format settings, GMC                     : No warppoints
Format settings, Matrix                  : Default (H.263)
Codec ID                                 : V_MS/VFW/FOURCC / XVID
Codec ID/Hint                            : XviD
Duration                                 : 1 h 32 min
Bit rate                                 : 1 558 kb/s
Width                                    : 720 pixels
Height                                   : 400 pixels
Display aspect ratio                     : 16:9
Frame rate mode                          : Constant
Frame rate                               : 24.000 FPS
Color space                              : YUV
Chroma subsampling                       : 4:2:0
Bit depth                                : 8 bits
Scan type                                : Progressive
Compression mode                         : Lossy
Bits/(Pixel*Frame)                       : 0.225
Stream size                              : 1.01 GiB (92%)
Title                                    : Arlo the Alligator Boy - Timsah Çocuk Arlo - 2021 - Filmbol.org
Writing library                          : Lavc58.35.100
Default                                  : Yes
Forced                                   : No

Audio
ID                                       : 2
Format                                   : MPEG Audio
Format version                           : Version 1
Format profile                           : Layer 3
Format settings                          : Joint stereo / MS Stereo
Codec ID                                 : A_MPEG/L3
Codec ID/Hint                            : MP3
Duration                                 : 1 h 32 min
Bit rate mode                            : Constant
Bit rate                                 : 128 kb/s
Channel(s)                               : 2 channels
Sampling rate                            : 48.0 kHz
Frame rate                               : 41.667 FPS (1152 SPF)
Compression mode                         : Lossy
Stream size                              : 84.7 MiB (8%)
Title                                    : Arlo the Alligator Boy - Timsah Çocuk Arlo - 2021 - Filmbol.org
Default                                  : Yes
Forced                                   : No

Film Detayları


 Timsah Çocuk Arlo

 Timsah Çocuk Arlo

 Timsah Çocuk Arlo


Film Fragmanı


Film Detayları


Uptobox ile indir

1Fichier ile indir

1Fichier'den İndiremiyor musun? Tıklayın!


Mega linki şuan da gizli. Kullanıma açmak için konuya yorum yapın ve ardından sayfayı yenileyin.

Mega


Bunun için üzgünüz ancak, bu linke sadece premium üyeler erişebilir.

Filmbol Cloud







Hızlı Menü: