Filmbol Forum Film İndir BRRip XviD v Clifton Tepesi (Clifton Hill) - 2019 - TR - BRRip XviD | tt5919756

Premium Üyelik Al

Bildirimi Kapat
Mega linklerinin şikayet edilmemesi için global erişime kapatıp sadece yorum yapanlara açıyoruz. Bu linkleri gizleme işlemini mecburen yapıyoruz ve yorum yapmanızın siteye değil size faydası vardır. Teşekkürler yazmayı çok görüp, Random/Spam/Anlamsız mesajlar atarak forumu kirletip Mega linklerini açmaya çalışan kullanıcılara süresiz ban atacağız.


Clifton Tepesi (Clifton Hill) - 2019 - TR - BRRip XviD | tt5919756
TheSteeL
Clifton Tepesi (Clifton Hill) - 2019 - TR - BRRip XviD | tt5919756
0
68
  • Derecelendirme: 0/5 - 0 oy
  • 1
  • 2
  • 3
  • 4
  • 5
Konuyu Okuyanlar:1 Ziyaretçi
Şuan Online!
Filmin Yayınlanma Tarihi: 2019 
WWW
Şuan Online!
TheSteeL Süper Moderatör
*****
Süper Moderatör



 Clifton Tepesi



Abby bundan çok uzun zaman önce, bir çocuğun kaçırılmasına göz yummuş ve hiçbir tepki göstermemiştir. Aradan 25 yıl geçmesine rağmen Abby bu olayı bir türlü kafasından silemez ve sürekli stres ve gerginlik halindedir. Kafayı yemek üzere olan Abby'nin tek çıkış yolu; Aradan 25 yıl geçmesine rağmen çocuğun kaybolduğu Clifton Tepesine giderek burada bir araştırma yapma ve çocuğu bulma çabası olacaktır...

Clifton Tepesi (2019) (Clifton Hill) | tt5919756 Filmi Imdb'den 2000 kişi tarafından oylandı ve 5,5 puan aldı. Bu film için editör puanı %62 olarak belirlendi. İyi Seyirler!

Teknik Detaylar

Kod :
General
Unique ID                                : 279725504873804399959978627658956117158 (0xD2712C2FCF7A73AF0C6D8802926F94A6)
Complete name                            : /home/TheSteel/Desktop/5/Clifton.Tepesi.2019.HDRip.XViD.TR.Filmbol.avi
Format                                   : Matroska
Format version                           : Version 4
File size                                : 649 MiB
Duration                                 : 1 h 40 min
Overall bit rate                         : 902 kb/s
Movie name                               : Clifton Hill - Clifton Tepesi - 2019 | Filmbol.org
Encoded date                             : UTC 2021-04-18 22:01:52
Writing application                      : mkvmerge v31.0.0 ('Dolores In A Shoestand') 64-bit
Writing library                          : libebml v1.3.6 + libmatroska v1.4.9
FileExtension_Invalid                    : mkv mk3d mka mks

Video
ID                                       : 1
Format                                   : MPEG-4 Visual
Format profile                           : Advanced [email protected]
Format settings                          : BVOP1
Format settings, BVOP                    : 1
Format settings, QPel                    : No
Format settings, GMC                     : No warppoints
Format settings, Matrix                  : Default (MPEG)
Muxing mode                              : Packed bitstream
Codec ID                                 : V_MS/VFW/FOURCC / XVID
Codec ID/Hint                            : XviD
Duration                                 : 1 h 40 min
Bit rate                                 : 772 kb/s
Width                                    : 720 pixels
Height                                   : 296 pixels
Display aspect ratio                     : 2.40:1
Frame rate mode                          : Constant
Frame rate                               : 23.976 (24000/1001) FPS
Original frame rate                      : 23.976 (23976/1000) FPS
Color space                              : YUV
Chroma subsampling                       : 4:2:0
Bit depth                                : 8 bits
Scan type                                : Progressive
Compression mode                         : Lossy
Bits/(Pixel*Frame)                       : 0.151
Stream size                              : 555 MiB (86%)
Title                                    : Clifton Hill - Clifton Tepesi - 2019 | Filmbol.org
Writing library                          : XviD 64
Default                                  : Yes
Forced                                   : No

Audio
ID                                       : 2
Format                                   : MPEG Audio
Format version                           : Version 1
Format profile                           : Layer 3
Format settings                          : Joint stereo
Codec ID                                 : A_MPEG/L3
Codec ID/Hint                            : MP3
Duration                                 : 1 h 40 min
Bit rate mode                            : Constant
Bit rate                                 : 128 kb/s
Channel(s)                               : 2 channels
Sampling rate                            : 48.0 kHz
Frame rate                               : 41.667 FPS (1152 SPF)
Compression mode                         : Lossy
Stream size                              : 92.0 MiB (14%)
Title                                    : Clifton Hill - Clifton Tepesi - 2019 | Filmbol.org
Writing library                          : LAME3.99.5
Default                                  : Yes
Forced                                   : No

Film Detayları


 Clifton Tepesi

 Clifton Tepesi

 Clifton Tepesi


Film Fragmanı


Film Detayları


Uptobox ile indir

1Fichier ile indir

1Fichier'den İndiremiyor musun? Tıklayın!


Mega linki şuan da gizli. Kullanıma açmak için konuya yorum yapın ve ardından sayfayı yenileyin.

Mega


Bunun için üzgünüz ancak, bu linke sadece premium üyeler erişebilir.

Filmbol Cloud







Hızlı Menü: