Filmbol Forum Film İndir BRRip XviD v Tükeniş (Extinction) - 2018 - TR - BRRip XviD | tt3201640

Premium Üyelik Al

Bildirimi Kapat
Mega linklerinin şikayet edilmemesi için global erişime kapatıp sadece yorum yapanlara açıyoruz. Bu linkleri gizleme işlemini mecburen yapıyoruz ve yorum yapmanızın siteye değil size faydası vardır. Teşekkürler yazmayı çok görüp, Random/Spam/Anlamsız mesajlar atarak forumu kirletip Mega linklerini açmaya çalışan kullanıcılara süresiz ban atacağız.


Tükeniş (Extinction) - 2018 - TR - BRRip XviD | tt3201640
TheSteeL
Tükeniş (Extinction) - 2018 - TR - BRRip XviD | tt3201640
2
68
  • Derecelendirme: 0/5 - 0 oy
  • 1
  • 2
  • 3
  • 4
  • 5
Konuyu Okuyanlar:1 Ziyaretçi
Şuan Online!
Filmin Yayınlanma Tarihi: 2018 
WWW
Şuan Online!
TheSteeL Süper Moderatör
*****
Süper Moderatör



 Tükeniş



Rüyalarımız bazen derin anlamlar içerse de, bazen umursamıyor, bazen de umursasak ve yanımızdakilere anlatsak bile onları ikna etmekte zorlanıyoruz. Extinction filminde Peter ismindeki orta yaşlarda ve aynı zamanda baba olan bu adam garip bir rüya görür. Rüya gelecekle alakalıdır ve dünyanın istila edileceğini görür. Bunu ailesine ve çevresine anlatsa da ona kimse inanmaz. Fakat bir gün Peter'ın rüyası gerçek olur ve dünya uzaylı istilasına uğrar. Herkes çok şaşkın olsa da, Peter kafasında bu senaryoyu kurmuştur ve alternatif planları vardır...

Tükeniş (2018) (Extinction) | tt3201640 Filmi Imdb'den 48000 kişi tarafından oylandı ve 5,8 puan aldı. Bu film için editör puanı %65 olarak belirlendi. İyi Seyirler!

Teknik Detaylar

Kod :
General
Unique ID                                : 28068293376649126324297008701825287771 (0x151DC1B52346B6BE9AC1B3FFCDCF065B)
Complete name                            : /home/TheSteel/Desktop/1/Tükeniş.2018.BRRip.XViD.TR.Filmbol.avi
Format                                   : Matroska
Format version                           : Version 4
File size                                : 1.18 GiB
Duration                                 : 1 h 35 min
Overall bit rate                         : 1 768 kb/s
Movie name                               : Extinction - Tükeniş - 2018 | Filmbol.org
Encoded date                             : UTC 2021-04-17 10:00:58
Writing application                      : mkvmerge v31.0.0 ('Dolores In A Shoestand') 64-bit
Writing library                          : libebml v1.3.6 + libmatroska v1.4.9
FileExtension_Invalid                    : mkv mk3d mka mks

Video
ID                                       : 1
Format                                   : MPEG-4 Visual
Format profile                           : [email protected]
Format settings, BVOP                    : No
Format settings, QPel                    : No
Format settings, GMC                     : No warppoints
Format settings, Matrix                  : Default (H.263)
Codec ID                                 : V_MS/VFW/FOURCC / XVID
Codec ID/Hint                            : XviD
Duration                                 : 1 h 35 min
Bit rate                                 : 1 639 kb/s
Width                                    : 720 pixels
Height                                   : 304 pixels
Display aspect ratio                     : 2.40:1
Original display aspect ratio            : 2.40:1
Frame rate mode                          : Constant
Frame rate                               : 23.976 FPS
Color space                              : YUV
Chroma subsampling                       : 4:2:0
Bit depth                                : 8 bits
Scan type                                : Progressive
Compression mode                         : Lossy
Bits/(Pixel*Frame)                       : 0.312
Stream size                              : 1.09 GiB (93%)
Title                                    : Extinction - Tükeniş - 2018 | Filmbol.org
Writing library                          : Lavc58.1.100
Default                                  : Yes
Forced                                   : No

Audio
ID                                       : 2
Format                                   : MPEG Audio
Format version                           : Version 1
Format profile                           : Layer 3
Format settings                          : Joint stereo / MS Stereo
Codec ID                                 : A_MPEG/L3
Codec ID/Hint                            : MP3
Duration                                 : 1 h 35 min
Bit rate mode                            : Constant
Bit rate                                 : 128 kb/s
Channel(s)                               : 2 channels
Sampling rate                            : 48.0 kHz
Frame rate                               : 41.667 FPS (1152 SPF)
Compression mode                         : Lossy
Stream size                              : 87.3 MiB (7%)
Title                                    : Extinction - Tükeniş - 2018 | Filmbol.org
Default                                  : Yes
Forced                                   : No

Film Detayları


 Tükeniş

 Tükeniş

 Tükeniş


Film Fragmanı


Film Detayları


Uptobox ile indir

1Fichier ile indir

1Fichier'den İndiremiyor musun? Tıklayın!


Mega linki şuan da gizli. Kullanıma açmak için konuya yorum yapın ve ardından sayfayı yenileyin.

Mega


Bunun için üzgünüz ancak, bu linke sadece premium üyeler erişebilir.

Filmbol Cloud





Şuan Online!
Şuan Online!
Furkan61 Süper Üye
***
Super Üye

  • Konular0
  • Mesajlar294
  • Rep puanı 4
teşekkürler
Şuan Online!
Şuan Online!
TheSteeL Süper Moderatör
*****
Süper Moderatör

(19-04-2021, Saat: 13:32)Furkan61 Adlı Kullanıcıdan Alıntı: teşekkürler

İyi Seyirler


Hızlı Menü: