⤤ Premium'a Yükselt

Ziyaretçi, diziler sık sık telif aldığı için artık MEGA linkleri eklememeye karar verdik. Yeni dizilerde mega linkleri görmeyeceksin. Bu bir hata olmadığı için, lütfen raporlama. x

Filmbol Forum Film İndir 1080P v Darwin'e Son Taksi (Last Cab to Darwin) - 2015 - TR+ORG - 1080P | tt3680410


Darwin'e Son Taksi (Last Cab to Darwin) - 2015 - TR+ORG - 1080P | tt3680410
BroserBros
Darwin'e Son Taksi (Last Cab to Darwin) - 2015 - TR+ORG - 1080P | tt3680410
3
1312
  • Derecelendirme: 0/5 - 0 oy
  • 1
  • 2
  • 3
  • 4
  • 5
Konuyu Okuyanlar:1 Ziyaretçi
Şuan Online!
Filmin Yayınlanma Tarihi: 2015 
WWW
Rapor Et!
Şuan Online!
BroserBros Kurucu Admin
*******



 Darwin'e Son Taksi



Broken Hill’de (Güneydoğu Avustralya) taksicilik yapan Rex, sağlık problemi dolayısıyla çok az ömrü kaldığını öğrenir ve kıtanın kuzeyindeki Darwin’de bir kliniğe giderek ötenazi yapmaya karar verir.Bu uzun yolculukta çeşitli insanlarla karşılaşır. Bu insanlar ve onlarla yaşadıkları yaşamı sorgulamasına, iyi ve kötü yanlarıyla tüm hayatını yeniden değerlendirmesine neden olacaktır.

Darwin'e Son Taksi (2015) | tt3680410 Filmi Imdb'den 5,000 kişi tarafından oylandı ve 7,2 puan aldı. Bu film için editör puanı %64 olarak belirlendi. İyi Seyirler!

Teknik Detaylar

Kod :
General
Unique ID                                : 302679040843449127581700594016625801023 (0xE3B5DCE26B4721B94F63DBC78512B73F)
Complete name                            : C:\Users\Administrator\Desktop\4\Darwine.Son.Taksi.2015.1080p.BluRay.x264.TR.ENG.Filmbol.mkv
Format                                   : Matroska
Format version                           : Version 4
File size                                : 2.03 GiB
Duration                                 : 2 h 3 min
Overall bit rate                         : 2 367 kb/s
Movie name                               : Last Cab To Darwin - Darwin'e Son Taksi - 2015 | Filmbol.org
Encoded date                             : UTC 2021-08-11 10:05:26
Writing application                      : mkvmerge v59.0.0 ('Shining Star') 64-bit
Writing library                          : libebml v1.4.2 + libmatroska v1.6.4

Video
ID                                       : 1
Format                                   : AVC
Format/Info                              : Advanced Video Codec
Format profile                           : [email protected]
Format settings                          : CABAC / 4 Ref Frames
Format settings, CABAC                   : Yes
Format settings, Reference frames        : 4 frames
Codec ID                                 : V_MPEG4/ISO/AVC
Duration                                 : 2 h 3 min
Bit rate                                 : 2 050 kb/s
Width                                    : 1 920 pixels
Height                                   : 800 pixels
Display aspect ratio                     : 2.40:1
Frame rate mode                          : Constant
Frame rate                               : 24.000 FPS
Color space                              : YUV
Chroma subsampling                       : 4:2:0
Bit depth                                : 8 bits
Scan type                                : Progressive
Bits/(Pixel*Frame)                       : 0.056
Stream size                              : 1.76 GiB (87%)
Title                                    : 1080P - Filmbol.org
Writing library                          : x264 core 148 r2638 7599210
Encoding settings                        : cabac=1 / ref=4 / deblock=1:-1:-1 / analyse=0x3:0x133 / me=umh / subme=9 / psy=1 / psy_rd=1.00:0.15 / mixed_ref=1 / me_range=24 / chroma_me=1 / trellis=2 / 8x8dct=1 / cqm=0 / deadzone=21,11 / fast_pskip=0 / chroma_qp_offset=-3 / threads=12 / lookahead_threads=1 / sliced_threads=0 / nr=0 / decimate=1 / interlaced=0 / bluray_compat=0 / constrained_intra=0 / bframes=3 / b_pyramid=2 / b_adapt=2 / b_bias=0 / direct=3 / weightb=1 / open_gop=0 / weightp=2 / keyint=250 / keyint_min=23 / scenecut=40 / intra_refresh=0 / rc_lookahead=60 / rc=2pass / mbtree=1 / bitrate=2050 / ratetol=1.0 / qcomp=0.60 / qpmin=0 / qpmax=69 / qpstep=4 / cplxblur=20.0 / qblur=0.5 / vbv_maxrate=31250 / vbv_bufsize=31250 / nal_hrd=none / filler=0 / ip_ratio=1.40 / aq=1:1.00
Default                                  : Yes
Forced                                   : No

Audio #1
ID                                       : 2
Format                                   : AC-3
Format/Info                              : Audio Coding 3
Commercial name                          : Dolby Digital
Codec ID                                 : A_AC3
Duration                                 : 2 h 3 min
Bit rate mode                            : Constant
Bit rate                                 : 192 kb/s
Channel(s)                               : 2 channels
Channel layout                           : L R
Sampling rate                            : 48.0 kHz
Frame rate                               : 31.250 FPS (1536 SPF)
Compression mode                         : Lossy
Stream size                              : 169 MiB (8%)
Title                                    : Türkçe - Filmbol.org
Language                                 : Turkish
Service kind                             : Complete Main
Default                                  : Yes
Forced                                   : No

Audio #2
ID                                       : 3
Format                                   : AAC LC
Format/Info                              : Advanced Audio Codec Low Complexity
Codec ID                                 : A_AAC-2
Duration                                 : 2 h 3 min
Bit rate                                 : 122 kb/s
Channel(s)                               : 2 channels
Channel layout                           : L R
Sampling rate                            : 48.0 kHz
Frame rate                               : 46.875 FPS (1024 SPF)
Compression mode                         : Lossy
Stream size                              : 108 MiB (5%)
Title                                    : Orijinal Dil - Filmbol.org
Language                                 : English
Default                                  : No
Forced                                   : No

Text
ID                                       : 4
Format                                   : UTF-8
Codec ID                                 : S_TEXT/UTF8
Codec ID/Info                            : UTF-8 Plain Text
Duration                                 : 1 h 58 min
Bit rate                                 : 47 b/s
Count of elements                        : 1182
Stream size                              : 41.7 KiB (0%)
Title                                    : Türkçe - Filmbol.org
Language                                 : Turkish
Default                                  : No
Forced                                   : No

Film Detayları


 Darwin'e Son Taksi

 Darwin'e Son Taksi

 Darwin'e Son Taksi


Film Fragmanı


Film İndir


Rar Şifresi: filmbol.org


Uptobox ile indir












Şuan Online!
Rapor Et!
Şuan Online!
BroserBros Kurucu Admin
*******
13.08.2021 Yönetici Notu:

Kırık linkler kontrol edildi, kaldırıldı ve yenilendi. Tüm linkler tamamen çalışır durumda.
Şuan Offine!
Rapor Et!
Şuan Offine!
angelord Üye
*
  • Konular1
  • Mesajlar137
  • Rep puanı 0
teşekkürler
Şuan Offine!
Rapor Et!
Şuan Offine!
kaydee Süper Üye
***
  • Konular0
  • Mesajlar339
  • Rep puanı 0
Teşekkürler.


Hızlı Menü: