Filmbol Forum Film İndir FHD - FULL HD v X-Men 4 Başlangıç: Wolverine (X-Men Origins: Wolverine) - 2009 - TR+ORG - FHD - x264 | tt0458525

Premium Üyelik Al

Bildirimi Kapat
Mega linklerinin şikayet edilmemesi için global erişime kapatıp sadece yorum yapanlara açıyoruz. Bu linkleri gizleme işlemini mecburen yapıyoruz ve yorum yapmanızın siteye değil size faydası vardır. Teşekkürler yazmayı çok görüp, Random/Spam/Anlamsız mesajlar atarak forumu kirletip Mega linklerini açmaya çalışan kullanıcılara süresiz ban atacağız.


X-Men 4 Başlangıç: Wolverine (X-Men Origins: Wolverine) - 2009 - TR+ORG - FHD - x264 | tt0458525
BroserBros
X-Men 4 Başlangıç: Wolverine (X-Men Origins: Wolverine) - 2009 - TR+ORG - FHD - x264 | tt0458525
0
43
  • Derecelendirme: 0/5 - 0 oy
  • 1
  • 2
  • 3
  • 4
  • 5
Konuyu Okuyanlar:1 Ziyaretçi
Şuan Online!
Filmin Yayınlanma Tarihi: 2009 
WWW
Şuan Online!
BroserBros Kurucu Admin
*******
Admin



 X-Men 4 Başlangıç: Wolverine



Bir zaman bir yerde yapılan bir seçim, koca bir ömrün akışını bambaşka bir yere sürükleyebilir. James Logan babasını öldürünce arkadaşı Victor Creed ile birlikte kaçmaya karar verir. William Stryker onları bulduğunda bir teklif getirir. Mutantlardan oluşan özel bir ekibe dahil olmalarını ister. Logan bir zaman sonra örgütü bırakır ve Kanada’ya doğru yola çıkar. Yollar ayrılmıştır. Aradan yıllar geçtikten sonra Stryker yeniden ortaya çıkar ve bu kez Logan’a Weapon X adlı projesine dahil olmasını teklif eder. Logan kabul etmez başta ancak sonrada bir intikam duygusu işle fikrini değiştirir. Vücuduna bir madde enjekte edilir ve o artık yenilmezdir.Projeye katılmayı kabul eder. Vücuduna enjekte edilen Adamantium metaliyle artık yenilmez olan Wolverine, Sabretooth’tan intikamını alabilecektir.

X-Men 4 Başlangıç: Wolverine (2009) (X-Men Origins: Wolverine) | tt0458525 Filmi Imdb'den 480,000 kişi tarafından oylandı ve 6,6 puan aldı. Bu film için editör puanı %78 olarak belirlendi. İyi Seyirler!

Teknik Detaylar

Kod :
General
Unique ID                                : 125005950749941922327006508692502384284 (0x5E0B4537773E918D5C4926B4C28A8E9C)
Complete name                            : /home/BroserBros/Desktop/5/X-Men.Başlangıç.Wolverine.2009.FHD.BluRay.x264.TR.ENG.Filmbol.mkv
Format                                   : Matroska
Format version                           : Version 4
File size                                : 3.45 GiB
Duration                                 : 1 h 47 min
Overall bit rate                         : 4 601 kb/s
Movie name                               : X-Men Başlangıç: Wolverine - X-Men Origins: Wolverine - 2009 | Filmbol.org
Encoded date                             : UTC 2021-04-11 13:42:49
Writing application                      : mkvmerge v53.0.0 ('Fool's Gold') 64-bit
Writing library                          : libebml v1.4.1 + libmatroska v1.6.2
Cover                                    : Yes
Attachments                              : cover.jpg

Video
ID                                       : 1
Format                                   : AVC
Format/Info                              : Advanced Video Codec
Format profile                           : [email protected]
Format settings                          : CABAC / 5 Ref Frames
Format settings, CABAC                   : Yes
Format settings, Reference frames        : 5 frames
Codec ID                                 : V_MPEG4/ISO/AVC
Duration                                 : 1 h 47 min
Bit rate                                 : 3 505 kb/s
Width                                    : 1 920 pixels
Height                                   : 816 pixels
Display aspect ratio                     : 2.35:1
Frame rate mode                          : Constant
Frame rate                               : 23.976 (24000/1001) FPS
Color space                              : YUV
Chroma subsampling                       : 4:2:0
Bit depth                                : 8 bits
Scan type                                : Progressive
Bits/(Pixel*Frame)                       : 0.093
Stream size                              : 2.63 GiB (76%)
Title                                    : FHD - Filmbol.org
Writing library                          : FASM Quality Enhancer Bitrate Squeezer 5.0 (c)2011 Fachman
Default                                  : Yes
Forced                                   : No
Color range                              : Limited
Color primaries                          : BT.709
Transfer characteristics                 : BT.709
Matrix coefficients                      : BT.709

Audio #1
ID                                       : 2
Format                                   : AC-3
Format/Info                              : Audio Coding 3
Commercial name                          : Dolby Digital
Codec ID                                 : A_AC3
Duration                                 : 1 h 47 min
Bit rate mode                            : Constant
Bit rate                                 : 448 kb/s
Channel(s)                               : 6 channels
Channel layout                           : L R C LFE Ls Rs
Sampling rate                            : 48.0 kHz
Frame rate                               : 31.250 FPS (1536 SPF)
Compression mode                         : Lossy
Delay relative to video                  : -83 ms
Stream size                              : 344 MiB (10%)
Title                                    : Türkçe - Filmbol.org
Language                                 : Turkish
Service kind                             : Complete Main
Default                                  : Yes
Forced                                   : No

Audio #2
ID                                       : 3
Format                                   : AC-3
Format/Info                              : Audio Coding 3
Commercial name                          : Dolby Digital
Codec ID                                 : A_AC3
Duration                                 : 1 h 47 min
Bit rate mode                            : Constant
Bit rate                                 : 640 kb/s
Channel(s)                               : 6 channels
Channel layout                           : L R C LFE Ls Rs
Sampling rate                            : 48.0 kHz
Frame rate                               : 31.250 FPS (1536 SPF)
Compression mode                         : Lossy
Delay relative to video                  : -83 ms
Stream size                              : 491 MiB (14%)
Title                                    : Orjinal Dil - Filmbol.org
Language                                 : English
Service kind                             : Complete Main
Default                                  : No
Forced                                   : No

Text
ID                                       : 4
Format                                   : PGS
Muxing mode                              : zlib
Codec ID                                 : S_HDMV/PGS
Codec ID/Info                            : Picture based subtitle format used on BDs/HD-DVDs
Duration                                 : 1 h 40 min
Bit rate                                 : 23.1 kb/s
Count of elements                        : 1702
Stream size                              : 16.6 MiB (0%)
Title                                    : Türkçe - Filmbol.org
Language                                 : Turkish
Default                                  : No
Forced                                   : No

Film Detayları


 X-Men 4 Başlangıç: Wolverine

 X-Men 4 Başlangıç: Wolverine

 X-Men 4 Başlangıç: Wolverine


Film Fragmanı


Film Detayları

Bunun için üzgünüz ancak, bu linke sadece premium üyeler erişebilir.

Filmbol Cloud







Hızlı Menü: