Filmbol Forum Film İndir BRRip XviD v Yıldırım Gücü (Thunder Force) - 2021 - TR - BRRip XviD | tt10121392

Premium Üyelik Al

Bildirimi Kapat
Mega linklerinin şikayet edilmemesi için global erişime kapatıp sadece yorum yapanlara açıyoruz. Bu linkleri gizleme işlemini mecburen yapıyoruz ve yorum yapmanızın siteye değil size faydası vardır. Teşekkürler yazmayı çok görüp, Random/Spam/Anlamsız mesajlar atarak forumu kirletip Mega linklerini açmaya çalışan kullanıcılara süresiz ban atacağız.


Yıldırım Gücü (Thunder Force) - 2021 - TR - BRRip XviD | tt10121392
TheSteeL
Yıldırım Gücü (Thunder Force) - 2021 - TR - BRRip XviD | tt10121392
0
54
  • Derecelendirme: 0/5 - 0 oy
  • 1
  • 2
  • 3
  • 4
  • 5
Konuyu Okuyanlar:1 Ziyaretçi
Şuan Online!
Filmin Yayınlanma Tarihi: 2021 
WWW
Şuan Online!
TheSteeL Süper Moderatör
*****
Süper Moderatör



 Yıldırım Gücü



Emily Stanton başarılı bir bilim insanıdır. Onun yaptığı işler herkesin ilgisini çekmekte ve sürekli kendisini geliştirmektedir. Bir gün gelişen olay ile Emily dünyanın tehlikede olduğunu fark eder. Süper güçlere sahip bir grup insan dünyayı ele geçirmek üzeredir. Bunu öğrendikten sonra Emily hemen işe koyulur ve modern yöntemler ile kendi DNA'sına süper güçler ekler. Ancak bu grubu durdurabilmek için bir ekibe ihtiyaç duyan Emily, yanında bir kaç kişi olması gerektiğini düşünür ve işe koyulur...

Yıldırım Gücü (2021) (Thunder Force) | tt10121392 Filmi Imdb'den 10000 kişi tarafından oylandı ve 4,4 puan aldı. Bu film için editör puanı %55 olarak belirlendi. İyi Seyirler!

Teknik Detaylar

Kod :
General
Unique ID                                : 288157021486612229744291185786076766369 (0xD8C9060D0D2FDC91A1FA931B327FA0A1)
Complete name                            : /home/TheSteel/Desktop/1/Yıldırım.Gücü.2021.HDRip.XViD.TR.Filmbol.avi
Format                                   : Matroska
Format version                           : Version 4
File size                                : 1.28 GiB
Duration                                 : 1 h 47 min
Overall bit rate                         : 1 704 kb/s
Movie name                               : Thunder Force - YIldırım Gücü - 2021 | Filmbol.org
Encoded date                             : UTC 2021-04-11 16:06:01
Writing application                      : mkvmerge v31.0.0 ('Dolores In A Shoestand') 64-bit
Writing library                          : libebml v1.3.6 + libmatroska v1.4.9
FileExtension_Invalid                    : mkv mk3d mka mks

Video
ID                                       : 1
Format                                   : MPEG-4 Visual
Format profile                           : [email protected]
Format settings, BVOP                    : No
Format settings, QPel                    : No
Format settings, GMC                     : No warppoints
Format settings, Matrix                  : Default (H.263)
Codec ID                                 : V_MS/VFW/FOURCC / XVID
Codec ID/Hint                            : XviD
Duration                                 : 1 h 47 min
Bit rate                                 : 1 574 kb/s
Width                                    : 720 pixels
Height                                   : 302 pixels
Display aspect ratio                     : 2.40:1
Frame rate mode                          : Constant
Frame rate                               : 24.000 FPS
Color space                              : YUV
Chroma subsampling                       : 4:2:0
Bit depth                                : 8 bits
Scan type                                : Progressive
Compression mode                         : Lossy
Bits/(Pixel*Frame)                       : 0.302
Stream size                              : 1.18 GiB (92%)
Title                                    : Thunder Force - YIldırım Gücü - 2021 | Filmbol.org
Writing library                          : Lavc58.35.100
Default                                  : Yes
Forced                                   : No

Audio
ID                                       : 2
Format                                   : MPEG Audio
Format version                           : Version 1
Format profile                           : Layer 3
Format settings                          : Joint stereo / MS Stereo
Codec ID                                 : A_MPEG/L3
Codec ID/Hint                            : MP3
Duration                                 : 1 h 47 min
Bit rate mode                            : Constant
Bit rate                                 : 128 kb/s
Channel(s)                               : 2 channels
Sampling rate                            : 48.0 kHz
Frame rate                               : 41.667 FPS (1152 SPF)
Compression mode                         : Lossy
Stream size                              : 98.2 MiB (8%)
Title                                    : Thunder Force - YIldırım Gücü - 2021 | Filmbol.org
Default                                  : Yes
Forced                                   : No

Film Detayları


 Yıldırım Gücü

 Yıldırım Gücü

 Yıldırım Gücü


Film Fragmanı


Film Detayları


Uptobox ile indir

1Fichier ile indir

1Fichier'den İndiremiyor musun? Tıklayın!


Mega linki şuan da gizli. Kullanıma açmak için konuya yorum yapın ve ardından sayfayı yenileyin.

Mega


Bunun için üzgünüz ancak, bu linke sadece premium üyeler erişebilir.

Filmbol Cloud







Hızlı Menü: