Filmbol Forum Film İndir UHD - ULTRA HD - 4K v O Bölüm 2 (It Chapter Two) - 2019 - TR+ORG - UHD (4K) - 10Bit-x265 | tt7349950
Mega linklerinin şikayet edilmemesi için global erişime kapatıp sadece yorum yapanlara açıyoruz. Bu linkleri gizleme işlemini mecburen yapıyoruz ve yorum yapmanızın siteye değil size faydası vardır. Teşekürler yazmayı çok görüp, Random/Spam mesajlar atarak Mega linklerini açmaya çalışan kullanıcılara önce süresiz ban, devam ederse IP ban atacağız.
Filmbol'da moderatör olmak ister misiniz? Bizimle iletişime geçmek için tıklayın!
O Bölüm 2 (It Chapter Two) - 2019 - TR+ORG - UHD (4K) - 10Bit-x265 | tt7349950
BroserBros
O Bölüm 2 (It Chapter Two) - 2019 - TR+ORG - UHD (4K) - 10Bit-x265 | tt7349950
0
43
  • Derecelendirme: 0/5 - 0 oy
  • 1
  • 2
  • 3
  • 4
  • 5
Konuyu Okuyanlar:1 Ziyaretçi
Şuan Online!
Filmin Yayınlanma Tarihi: 2019 
WWW
Şuan Online!
BroserBros Kurucu Admin
*******
Admin



 O Bölüm 2



O Bölüm 2, seytan palyaçonun geri dönmesi ile yirmi yedi yıl sonra yeniden bir araya gelen Ezikler Kulübü üyelerinin hikayesini konu ediyor. Aldığı yenilginin üzerinden geçen yirmi yedi yılın ardından Pennywise, Derry kasabasına geri döner. Ezikler Kulübü’nün üyelerinin her biri bir yana savrulmuş, sadece Mike kasabada yaşamını sürdürmeye devam etmektedir. Mike, tıpkı yıllar önce olduğu gibi insanların ortadan kaybolmaya başlaması sonucu arkadaşlarını kasabaya çağırmaya karar verir. Pennywise’ın geri dönüşü sebebiyle, çocukken söz verdikleri gibi kasabaya geri dönen yetişkinler bir kez daha şeytani palyaço ile karşı karşıyadır. Ancak yıllar sonra bir araya gelen ekibin birbirlerini yeniden tanımaları da bir hayli zor olur. Artık evli bir adam olan Bill ve sevgilisinden şiddet gören Beverly başta olmak üzere, tanıştıklarından bambaşka hayatlar yaşayan eski arkadaşlar, bir kez daha el ele vermek zorunda kalır.

O Bölüm 2 (2019) (It Chapter Two) | tt7349950 Filmi Imdb'den 210,000 kişi tarafından oylandı ve 6,5 puan aldı. Bu film için editör puanı %79 olarak belirlendi. İyi Seyirler!

Teknik Detaylar

Kod :
General
Unique ID                                : 1139404668585525542956377681219653838 (0xDB70FCC5BA5AC1021258B2550D90CE)
Complete name                            : /home/BroserBros/Desktop/1/O.Bölüm.2.2019.2160p.4K.BluRay.x264.TR.ENG.Filmbol.mkv
Format                                   : Matroska
Format version                           : Version 4
File size                                : 25.4 GiB
Duration                                 : 2 h 50 min
Overall bit rate                         : 21.3 Mb/s
Movie name                               : O: Bölüm 2 - İt: Chapter Two - 2019 | Filmbol.org
Encoded date                             : UTC 2021-04-05 15:17:42
Writing application                      : mkvmerge v53.0.0 ('Fool's Gold') 64-bit
Writing library                          : libebml v1.4.1 + libmatroska v1.6.2

Video
ID                                       : 1
Format                                   : HEVC
Format/Info                              : High Efficiency Video Coding
Format profile                           : Main [email protected]@Main
HDR format                               : SMPTE ST 2086, HDR10 compatible
Codec ID                                 : V_MPEGH/ISO/HEVC
Duration                                 : 2 h 49 min
Bit rate                                 : 20.2 Mb/s
Width                                    : 3 840 pixels
Height                                   : 1 608 pixels
Display aspect ratio                     : 2.40:1
Frame rate mode                          : Constant
Frame rate                               : 23.976 (24000/1001) FPS
Color space                              : YUV
Chroma subsampling                       : 4:2:0
Bit depth                                : 10 bits
Bits/(Pixel*Frame)                       : 0.136
Stream size                              : 23.9 GiB (94%)
Title                                    : 4K - Filmbol.org
Writing library                          : x265 3.2+5-354901970679:[Windows][GCC 9.2.0][64 bit] 10bit
Encoding settings                        : cpuid=1111039 / frame-threads=3 / numa-pools=8 / wpp / no-pmode / no-pme / no-psnr / no-ssim / log-level=2 / input-csp=1 / input-res=3840x1608 / interlace=0 / total-frames=243722 / level-idc=0 / high-tier=1 / uhd-bd=0 / ref=4 / no-allow-non-conformance / repeat-headers / annexb / no-aud / no-hrd / info / hash=0 / no-temporal-layers / open-gop / min-keyint=23 / keyint=250 / gop-lookahead=0 / bframes=8 / b-adapt=2 / b-pyramid / bframe-bias=0 / rc-lookahead=25 / lookahead-slices=4 / scenecut=40 / radl=0 / no-splice / no-intra-refresh / ctu=64 / min-cu-size=8 / rect / no-amp / max-tu-size=32 / tu-inter-depth=1 / tu-intra-depth=1 / limit-tu=0 / rdoq-level=2 / dynamic-rd=0.00 / no-ssim-rd / signhide / no-tskip / nr-intra=0 / nr-inter=0 / no-constrained-intra / strong-intra-smoothing / max-merge=3 / limit-refs=3 / limit-modes / me=3 / subme=3 / merange=57 / temporal-mvp / no-frame-dup / no-hme / weightp / no-weightb / no-analyze-src-pics / deblock=0:0 / no-sao / no-sao-non-deblock / rd=4 / selective-sao=0 / no-early-skip / rskip / no-fast-intra / no-tskip-fast / no-cu-lossless / no-b-intra / no-splitrd-skip / rdpenalty=0 / psy-rd=2.00 / psy-rdoq=1.00 / no-rd-refine / no-lossless / cbqpoffs=0 / crqpoffs=0 / rc=crf / crf=16.0 / qcomp=0.60 / qpstep=4 / stats-write=0 / stats-read=0 / ipratio=1.40 / pbratio=1.30 / aq-mode=2 / aq-strength=1.00 / cutree / zone-count=0 / no-strict-cbr / qg-size=32 / no-rc-grain / qpmax=69 / qpmin=0 / no-const-vbv / sar=0 / overscan=0 / videoformat=5 / range=0 / colorprim=9 / transfer=16 / colormatrix=9 / chromaloc=0 / display-window=0 / master-display=G(13250,34500)B(7500,3000)R(34000,16000)WP(15635,16450)L(40000000,50) / cll=0,0 / min-luma=0 / max-luma=1023 / log2-max-poc-lsb=8 / vui-timing-info / vui-hrd-info / slices=1 / no-opt-qp-pps / no-opt-ref-list-length-pps / no-multi-pass-opt-rps / scenecut-bias=0.05 / no-opt-cu-delta-qp / aq-motion / hdr / hdr-opt / no-dhdr10-opt / no-idr-recovery-sei / analysis-reuse-level=5 / scale-factor=0 / refine-intra=0 / refine-inter=0 / refine-mv=1 / refine-ctu-distortion=0 / no-limit-sao / ctu-info=0 / no-lowpass-dct / refine-analysis-type=0 / copy-pic=1 / max-ausize-factor=1.0 / no-dynamic-refine / no-single-sei / no-hevc-aq / no-svt / no-field / qp-adaptation-range=1.00
Default                                  : Yes
Forced                                   : No
Color range                              : Limited
Color primaries                          : BT.2020
Transfer characteristics                 : PQ
Matrix coefficients                      : BT.2020 non-constant
Mastering display color primaries        : Display P3
Mastering display luminance              : min: 0.0050 cd/m2, max: 4000 cd/m2

Audio #1
ID                                       : 2
Format                                   : AC-3
Format/Info                              : Audio Coding 3
Commercial name                          : Dolby Digital
Codec ID                                 : A_AC3
Duration                                 : 2 h 50 min
Bit rate mode                            : Constant
Bit rate                                 : 448 kb/s
Channel(s)                               : 6 channels
Channel layout                           : L R C LFE Ls Rs
Sampling rate                            : 48.0 kHz
Frame rate                               : 31.250 FPS (1536 SPF)
Compression mode                         : Lossy
Delay relative to video                  : 2 s 0 ms
Stream size                              : 545 MiB (2%)
Title                                    : Türkçe - Filmbol.org
Language                                 : Turkish
Service kind                             : Complete Main
Default                                  : No
Forced                                   : No

Audio #2
ID                                       : 3
Format                                   : AAC LC
Format/Info                              : Advanced Audio Codec Low Complexity
Codec ID                                 : A_AAC-2
Duration                                 : 2 h 49 min
Bit rate                                 : 783 kb/s
Channel(s)                               : 8 channels
Channel layout                           : C L R Ls Rs Lb Rb LFE
Sampling rate                            : 48.0 kHz
Frame rate                               : 46.875 FPS (1024 SPF)
Compression mode                         : Lossy
Delay relative to video                  : 20 ms
Stream size                              : 949 MiB (4%)
Title                                    : Orjinal Dil - Filmbol.org
Language                                 : English
Default                                  : Yes
Forced                                   : No

Text #1
ID                                       : 4
Format                                   : UTF-8
Codec ID                                 : S_TEXT/UTF8
Codec ID/Info                            : UTF-8 Plain Text
Duration                                 : 2 h 48 min
Bit rate                                 : 46 b/s
Count of elements                        : 2278
Stream size                              : 57.1 KiB (0%)
Title                                    : Türkçe - Filmbol.org
Language                                 : Turkish
Default                                  : No
Forced                                   : No

Text #2
ID                                       : 5
Format                                   : VobSub
Muxing mode                              : zlib
Codec ID                                 : S_VOBSUB
Codec ID/Info                            : Picture based subtitle format used on DVDs
Duration                                 : 2 h 44 min
Bit rate                                 : 10.1 kb/s
Count of elements                        : 2743
Stream size                              : 11.9 MiB (0%)
Title                                    : Orjinal Dil - Filmbol.org
Language                                 : English
Default                                  : No
Forced                                   : No

Film Detayları


 O Bölüm 2

 O Bölüm 2

 O Bölüm 2


Film Fragmanı


Film Detayları

Bunun için üzgünüz ancak, bu linke sadece premium üyeler erişebilir.

Filmbol Cloud







Konu ile Alakalı Benzer Konular
Konular Yazar Yorumlar Okunma Son Yorum
Filmin Yayınlanma Tarihi: 2006
X-Men: Son Direniş (X-Men: The Last Stand) - 2006 - TR+ORG - UHD (4K) - 10Bit-x265 | tt0376994 BroserBros 0 16 10-04-2021, Saat: 19:46
Son Yorum: BroserBros
Filmin Yayınlanma Tarihi: 2003
X-Men 2 (X2: X-Men United) - 2003 - TR+ORG - UHD (4K) - 10Bit-x265 | tt0290334 BroserBros 0 13 10-04-2021, Saat: 18:58
Son Yorum: BroserBros
Filmin Yayınlanma Tarihi: 2000
X-Men 1 (X-Men) - 2000 - TR+ORG - UHD (4K) - 10Bit-x265 | tt0120903 BroserBros 0 12 10-04-2021, Saat: 18:45
Son Yorum: BroserBros
Filmin Yayınlanma Tarihi: 2018
Uzun Kâbus (Slender Man) - 2018 - TR+ORG - UHD (4K) - 10Bit-x265 | tt5690360 BroserBros 0 13 10-04-2021, Saat: 18:26
Son Yorum: BroserBros
Filmin Yayınlanma Tarihi: 2014
John Wick (John Wick 1) - 2014 - TR+ORG - UHD (4K) - 10Bit-x265 | tt2911666 BroserBros 0 26 04-04-2021, Saat: 22:28
Son Yorum: BroserBros

Hızlı Menü: