Filmbol Forum Film İndir 720P v Davetsiz (The Wretched) - 2019 - TR+ORG - 720P | tt8305806
Mega linklerinin şikayet edilmemesi için global erişime kapatıp sadece yorum yapanlara açıyoruz. Bu linkleri gizleme işlemini mecburen yapıyoruz ve yorum yapmanızın siteye değil size faydası vardır. Teşekürler yazmayı çok görüp, Random/Spam mesajlar atarak Mega linklerini açmaya çalışan kullanıcılara önce süresiz ban, devam ederse IP ban atacağız.
Filmbol'da moderatör olmak ister misiniz? Bizimle iletişime geçmek için tıklayın!
Davetsiz (The Wretched) - 2019 - TR+ORG - 720P | tt8305806
TheSteeL
Davetsiz (The Wretched) - 2019 - TR+ORG - 720P | tt8305806
0
63
  • Derecelendirme: 0/5 - 0 oy
  • 1
  • 2
  • 3
  • 4
  • 5
Konuyu Okuyanlar:1 Ziyaretçi
Şuan Online!
Filmin Yayınlanma Tarihi: 2019 
WWW
Şuan Online!
TheSteeL Süper Moderatör
*****
Süper Moderatör



 Davetsiz



Ben'in hayatı pek yolunda gitmemiştir. Ailesi ayrılmış ve bu onu çok etkilemiştir. Derslerine odaklanmayı başaramayan ve babası ile birlikte kalan Ben sosyal olabilmek için çevresinde kim varsa samimi davranmaya çalışır. Buna komşularından başlasa da, komşularından birinde ilginç bir şey sezer. Bu komşuları çok farklıdır ve Ben zamanla onların insan değil, çocukları avlayan bir cadı olduğunu öğrenir. Bu durumu öğrendiğinde yapması gereken şeyin artık sevdiklerini korumak olduğunu anlar. Fakat karşısındaki kişiler cadılardır ve Ben'in işi çok zordur...

Davetsiz (2019) (The Wretched) | tt8305806 Filmi Imdb'den 12000 kişi tarafından oylandı ve 5,8 puan aldı. Bu film için editör puanı %64 olarak belirlendi. İyi Seyirler!

Teknik Detaylar

Kod :
General
Unique ID                                : 67911330292125573054761240470452446741 (0x33173F17D2FB6A56F1C595320E302615)
Complete name                            : /home/TheSteel/Desktop/2/Davetsiz.2019.720p.BluRay.x264.TR.ENG.Filmbol.mkv
Format                                   : Matroska
Format version                           : Version 4
File size                                : 1.03 GiB
Duration                                 : 1 h 35 min
Overall bit rate                         : 1 535 kb/s
Movie name                               : The Wretched - Davetsiz - 2019 | Filmbol.org
Encoded date                             : UTC 2021-04-05 15:20:46
Writing application                      : mkvmerge v31.0.0 ('Dolores In A Shoestand') 64-bit
Writing library                          : libebml v1.3.6 + libmatroska v1.4.9

Video
ID                                       : 1
Format                                   : AVC
Format/Info                              : Advanced Video Codec
Format profile                           : [email protected]
Format settings                          : CABAC / 4 Ref Frames
Format settings, CABAC                   : Yes
Format settings, Reference frames        : 4 frames
Codec ID                                 : V_MPEG4/ISO/AVC
Duration                                 : 1 h 35 min
Bit rate                                 : 1 150 kb/s
Width                                    : 1 280 pixels
Height                                   : 534 pixels
Display aspect ratio                     : 2.40:1
Original display aspect ratio            : 2.40:1
Frame rate mode                          : Constant
Frame rate                               : 23.976 (24000/1001) FPS
Color space                              : YUV
Chroma subsampling                       : 4:2:0
Bit depth                                : 8 bits
Scan type                                : Progressive
Bits/(Pixel*Frame)                       : 0.070
Stream size                              : 786 MiB (75%)
Title                                    : The Wretched - Davetsiz - 2019 | Filmbol.org
Writing library                          : x264 core 158
Encoding settings                        : cabac=1 / ref=4 / deblock=1:-1:-1 / analyse=0x3:0x133 / me=umh / subme=9 / psy=1 / psy_rd=1.00:0.15 / mixed_ref=1 / me_range=24 / chroma_me=1 / trellis=2 / 8x8dct=1 / cqm=0 / deadzone=21,11 / fast_pskip=0 / chroma_qp_offset=-3 / threads=12 / lookahead_threads=1 / sliced_threads=0 / nr=0 / decimate=1 / interlaced=0 / bluray_compat=0 / constrained_intra=0 / bframes=3 / b_pyramid=2 / b_adapt=2 / b_bias=0 / direct=3 / weightb=1 / open_gop=0 / weightp=2 / keyint=250 / keyint_min=23 / scenecut=40 / intra_refresh=0 / rc_lookahead=60 / rc=2pass / mbtree=1 / bitrate=1150 / ratetol=1.0 / qcomp=0.60 / qpmin=0 / qpmax=69 / qpstep=4 / cplxblur=20.0 / qblur=0.5 / vbv_maxrate=31250 / vbv_bufsize=31250 / nal_hrd=none / filler=0 / ip_ratio=1.40 / aq=1:1.00
Default                                  : Yes
Forced                                   : No

Audio #1
ID                                       : 2
Format                                   : AC-3
Format/Info                              : Audio Coding 3
Commercial name                          : Dolby Digital
Codec ID                                 : A_AC3
Duration                                 : 1 h 35 min
Bit rate mode                            : Constant
Bit rate                                 : 192 kb/s
Channel(s)                               : 2 channels
Channel layout                           : L R
Sampling rate                            : 48.0 kHz
Frame rate                               : 31.250 FPS (1536 SPF)
Compression mode                         : Lossy
Stream size                              : 131 MiB (12%)
Title                                    : The Wretched - Davetsiz - 2019 | Filmbol.org
Language                                 : Turkish
Service kind                             : Complete Main
Default                                  : Yes
Forced                                   : No

Audio #2
ID                                       : 3
Format                                   : AC-3
Format/Info                              : Audio Coding 3
Commercial name                          : Dolby Digital
Codec ID                                 : A_AC3
Duration                                 : 1 h 35 min
Bit rate mode                            : Constant
Bit rate                                 : 192 kb/s
Channel(s)                               : 2 channels
Channel layout                           : L R
Sampling rate                            : 48.0 kHz
Frame rate                               : 31.250 FPS (1536 SPF)
Compression mode                         : Lossy
Stream size                              : 131 MiB (13%)
Title                                    : The Wretched - Davetsiz - 2019 | Filmbol.org
Language                                 : English
Service kind                             : Complete Main
Default                                  : No
Forced                                   : No

Text
ID                                       : 4
Format                                   : UTF-8
Codec ID                                 : S_TEXT/UTF8
Codec ID/Info                            : UTF-8 Plain Text
Duration                                 : 1 h 29 min
Bit rate                                 : 33 b/s
Count of elements                        : 846
Stream size                              : 21.9 KiB (0%)
Title                                    : The Wretched - Davetsiz - 2019 | Filmbol.org
Language                                 : Turkish
Default                                  : No
Forced                                   : No

Film Detayları


 Davetsiz

 Davetsiz

 Davetsiz


Film Fragmanı


Film Detayları

Uptobox ile indir

1Fichier ile indir

1Fichier'den İndiremiyor musun? Tıklayın!


Mega linki şuan da gizli. Kullanıma açmak için konuya yorum yapın ve ardından sayfayı yenileyin.

Mega


Bunun için üzgünüz ancak, bu linke sadece premium üyeler erişebilir.

Filmbol Cloud







Konu ile Alakalı Benzer Konular
Konular Yazar Yorumlar Okunma Son Yorum
Filmin Yayınlanma Tarihi: 2021
Yıldırım Gücü (Thunder Force) - 2021 - TR+ORG - 720P | tt10121392 TheSteeL 0 6 6 saat önce
Son Yorum: TheSteeL
Filmin Yayınlanma Tarihi: 2019
Kırk Yalan (Kirk Yalan) - 2019 - TR+ORG - 720P | tt11402172 TheSteeL 2 53 6 saat önce
Son Yorum: TheSteeL
Filmin Yayınlanma Tarihi: 2013
Demir Adam 3 (Iron Man Three) - 2013 - TR+ORG - 720P | tt1300854 BroserBros 5 3,684 10-04-2021, Saat: 23:37
Son Yorum: ezobaskan
Filmin Yayınlanma Tarihi: 2012
Gerçeğin Peşinde (Man on a Ledge) - 2012 - TR+ORG - 720P | tt1568338 BroserBros 2 379 10-04-2021, Saat: 20:00
Son Yorum: BroserBros
Filmin Yayınlanma Tarihi: 2006
X-Men: Son Direniş (X-Men: The Last Stand) - 2006 - TR+ORG - 720P | tt0376994 BroserBros 4 2,413 10-04-2021, Saat: 19:47
Son Yorum: BroserBros

Hızlı Menü: