Filmbol Forum Film İndir BRRip XviD v Sadece Evet De (Just Say Yes) - 2021 - TR - BRRip XviD | tt12154638
Bildirimi Kapat
Üyelik alımları açıldı.


Bildirimi Kapat
Mega linklerinin şikayet edilmemesi için global erişime kapatıp sadece yorum yapanlara açıyoruz. Bu linkleri gizleme işlemini mecburen yapıyoruz ve yorum yapmanızın siteye değil size faydası vardır. Teşekkürler yazmayı çok görüp, Random/Spam/Anlamsız mesajlar atarak forumu kirletip Mega linklerini açmaya çalışan kullanıcılara süresiz ban atacağız.

Premium Üyelik Al

Sadece Evet De (Just Say Yes) - 2021 - TR - BRRip XviD | tt12154638
TheSteeL
Sadece Evet De (Just Say Yes) - 2021 - TR - BRRip XviD | tt12154638
0
76
  • Derecelendirme: 0/5 - 0 oy
  • 1
  • 2
  • 3
  • 4
  • 5
Konuyu Okuyanlar:2 Ziyaretçi
Şuan Online!
Filmin Yayınlanma Tarihi: 2021 
WWW
Şuan Online!
TheSteeL Süper Moderatör
*****
Süper Moderatör



 Sadece Evet De



Lotte, bir hayat kurmak için çok çabalamakta ve sürekli bunun hayalî ile yaşamaktadır. Sevgilisi Alex ile arası mükemmel derece iyidir ve evlenme kararı alırlar. Lotte gün saymaya başlasa da, son günlerde Alex vazgeçerek onu terk eder. Bunun üzerine Lotte, hayalini kurduğu evliliği gerçekleştirmek için ne gerekiyorsa yapmaya karar verir...

Sadece Evet De (2021) (Just Say Yes) | tt12154638 Filmi Imdb'den 600 kişi tarafından oylandı ve 4,3 puan aldı. Bu film için editör puanı %50 olarak belirlendi. İyi Seyirler!

Teknik Detaylar

Kod :
General
Unique ID                                : 329660585666317923451438207796162986959 (0xF80251C06406B7035A7F68ECF92603CF)
Complete name                            : /home/TheSteel/Desktop/1/Sadece.Evet.De.2021.HDRip.XViD.TR.Filmbol.avi
Format                                   : Matroska
Format version                           : Version 4
File size                                : 1.22 GiB
Duration                                 : 1 h 37 min
Overall bit rate                         : 1 778 kb/s
Movie name                               : Sadece Evet De - Just Say Yes - 2021 | Filmbol.org
Encoded date                             : UTC 2021-04-05 14:56:51
Writing application                      : mkvmerge v31.0.0 ('Dolores In A Shoestand') 64-bit
Writing library                          : libebml v1.3.6 + libmatroska v1.4.9
FileExtension_Invalid                    : mkv mk3d mka mks

Video
ID                                       : 1
Format                                   : MPEG-4 Visual
Format profile                           : Advanced [email protected]
Format settings                          : BVOP2
Format settings, BVOP                    : 2
Format settings, QPel                    : No
Format settings, GMC                     : No warppoints
Format settings, Matrix                  : Default (MPEG)
Muxing mode                              : Packed bitstream
Codec ID                                 : V_MS/VFW/FOURCC / XVID
Codec ID/Hint                            : XviD
Duration                                 : 1 h 37 min
Bit rate                                 : 1 649 kb/s
Width                                    : 720 pixels
Height                                   : 404 pixels
Display aspect ratio                     : 16:9
Frame rate mode                          : Constant
Frame rate                               : 25.000 FPS
Color space                              : YUV
Chroma subsampling                       : 4:2:0
Bit depth                                : 8 bits
Scan type                                : Progressive
Compression mode                         : Lossy
Bits/(Pixel*Frame)                       : 0.227
Stream size                              : 1.13 GiB (93%)
Title                                    : Sadece Evet De - Just Say Yes - 2021 | Filmbol.org
Writing library                          : XviD 64
Default                                  : Yes
Forced                                   : No

Audio
ID                                       : 2
Format                                   : MPEG Audio
Format version                           : Version 1
Format profile                           : Layer 3
Format settings                          : Joint stereo / MS Stereo
Codec ID                                 : A_MPEG/L3
Codec ID/Hint                            : MP3
Duration                                 : 1 h 37 min
Bit rate mode                            : Constant
Bit rate                                 : 128 kb/s
Channel(s)                               : 2 channels
Sampling rate                            : 48.0 kHz
Frame rate                               : 41.667 FPS (1152 SPF)
Compression mode                         : Lossy
Stream size                              : 89.7 MiB (7%)
Title                                    : Sadece Evet De - Just Say Yes - 2021 | Filmbol.org
Default                                  : Yes
Forced                                   : No

Film Detayları


 Sadece Evet De

 Sadece Evet De

 Sadece Evet De


Film Fragmanı


Film Detayları


Uptobox ile indir

1Fichier ile indir

1Fichier'den İndiremiyor musun? Tıklayın!


Mega linki şuan da gizli. Kullanıma açmak için konuya yorum yapın ve ardından sayfayı yenileyin.

Mega


Bunun için üzgünüz ancak, bu linke sadece premium üyeler erişebilir.

Filmbol Cloud







Hızlı Menü: