Filmbol Forum Film İndir 3D v Karayip Korsanları 4: Gizemli Denizlerde (Pirates of the Caribbean: On Stranger Tides) - 2011 - TR+ORG - 3D | tt1298650
Mega linklerinin şikayet edilmemesi için global erişime kapatıp sadece yorum yapanlara açıyoruz. Bu linkleri gizleme işlemini mecburen yapıyoruz ve yorum yapmanızın siteye değil size faydası vardır. Teşekürler yazmayı çok görüp, Random/Spam mesajlar atarak Mega linklerini açmaya çalışan kullanıcılara önce süresiz ban, devam ederse IP ban atacağız.
Filmbol'da moderatör olmak ister misiniz? Bizimle iletişime geçmek için tıklayın!
Karayip Korsanları 4: Gizemli Denizlerde (Pirates of the Caribbean: On Stranger Tides) - 2011 - TR+ORG - 3D | tt1298650
BroserBros
Karayip Korsanları 4: Gizemli Denizlerde (Pirates of the Caribbean: On Stranger Tides) - 2011 - TR+ORG - 3D | tt1298650
0
26
  • Derecelendirme: 0/5 - 0 oy
  • 1
  • 2
  • 3
  • 4
  • 5
Konuyu Okuyanlar:3 Ziyaretçi
Şuan Online!
Filmin Yayınlanma Tarihi: 2011 
WWW
Şuan Online!
BroserBros Kurucu Admin
*******
Admin



 Karayip Korsanları 4: Gizemli Denizlerde



Jack Sparrowun hedefi arasında artık Gençlik Çeşmesi vardır. İngiliz kralının teklifini reddeden Jack, kendi mürettabatını toplamya başlayacaktır. Ancak bir sorun vardır; birisi Jack’in kimliğini kullanarak mürettabat toplamaya başlamış ve hedefi de Jack ile aynı şekilde Gençlik Çeşmesidir. Sorunu daha büyük yapan ise bu sahte kaptanın Angelica olmasıdır.

Karayip Korsanları 4: Gizemli Denizlerde (2011) (Pirates of the Caribbean: On Stranger Tides) | tt1298650 Filmi Imdb'den 490,000 kişi tarafından oylandı ve 6,6 puan aldı. Bu film için editör puanı %75 olarak belirlendi. İyi Seyirler!

Teknik Detaylar

Kod :
General
Unique ID                                : 304305182678172427538018189603678809461 (0xE4EF0BDDEF67A7C072563D5B5AE96D75)
Complete name                            : /home/BroserBros/Desktop/7/Karayip.Korsanları.4.Gizemli.Denizlerde.2011.3D.x264.Bluray.TR.ENG.Filmbol.mkv
Format                                   : Matroska
Format version                           : Version 4
File size                                : 2.71 GiB
Duration                                 : 2 h 16 min
Overall bit rate                         : 2 848 kb/s
Movie name                               : Karayip Korsanları 4: Gizemli Denizlerde - Pirates of the Caribbean 4: On Stranger Tides - 2011 | Filmbol.org
Encoded date                             : UTC 2021-04-02 14:55:40
Writing application                      : mkvmerge v53.0.0 ('Fool's Gold') 64-bit
Writing library                          : libebml v1.4.1 + libmatroska v1.6.2

Video
ID                                       : 1
Format                                   : AVC
Format/Info                              : Advanced Video Codec
Format profile                           : [email protected]
Format settings                          : CABAC / 4 Ref Frames
Format settings, CABAC                   : Yes
Format settings, Reference frames        : 4 frames
Codec ID                                 : V_MPEG4/ISO/AVC
Duration                                 : 2 h 16 min
Bit rate                                 : 2 112 kb/s
Width                                    : 1 920 pixels
Height                                   : 1 080 pixels
Display aspect ratio                     : 16:9
Frame rate mode                          : Constant
Frame rate                               : 23.976 (24000/1001) FPS
Color space                              : YUV
Chroma subsampling                       : 4:2:0
Bit depth                                : 8 bits
Scan type                                : Progressive
Bits/(Pixel*Frame)                       : 0.042
Stream size                              : 2.01 GiB (74%)
Title                                    : 3D - Filmbol.org
Writing library                          : x264 core 120 r2164 da19765
Encoding settings                        : cabac=1 / ref=4 / deblock=1:0:0 / analyse=0x3:0x113 / me=umh / subme=8 / psy=1 / psy_rd=1.00:0.15 / mixed_ref=1 / me_range=18 / chroma_me=1 / trellis=1 / 8x8dct=1 / cqm=0 / deadzone=21,11 / fast_pskip=1 / chroma_qp_offset=-3 / threads=6 / sliced_threads=0 / nr=0 / decimate=1 / interlaced=0 / bluray_compat=0 / constrained_intra=0 / bframes=3 / b_pyramid=2 / b_adapt=2 / b_bias=0 / direct=3 / weightb=1 / open_gop=0 / weightp=2 / keyint=240 / keyint_min=23 / scenecut=40 / intra_refresh=0 / rc_lookahead=50 / rc=2pass / mbtree=1 / bitrate=2112 / ratetol=1.0 / qcomp=0.60 / qpmin=10 / qpmax=51 / qpstep=4 / cplxblur=20.0 / qblur=0.5 / ip_ratio=1.40 / aq=1:1.00
Default                                  : Yes
Forced                                   : No

Audio #1
ID                                       : 2
Format                                   : AC-3
Format/Info                              : Audio Coding 3
Commercial name                          : Dolby Digital
Codec ID                                 : A_AC3
Duration                                 : 2 h 16 min
Bit rate mode                            : Constant
Bit rate                                 : 640 kb/s
Channel(s)                               : 6 channels
Channel layout                           : L R C LFE Ls Rs
Sampling rate                            : 48.0 kHz
Frame rate                               : 31.250 FPS (1536 SPF)
Compression mode                         : Lossy
Delay relative to video                  : -83 ms
Stream size                              : 624 MiB (22%)
Title                                    : Türkçe - Filmbol.org
Language                                 : Turkish
Service kind                             : Complete Main
Default                                  : Yes
Forced                                   : No

Audio #2
ID                                       : 3
Format                                   : AAC LC
Format/Info                              : Advanced Audio Codec Low Complexity
Codec ID                                 : A_AAC-2
Duration                                 : 2 h 16 min
Bit rate                                 : 96.0 kb/s
Channel(s)                               : 2 channels
Channel layout                           : L R
Sampling rate                            : 48.0 kHz
Frame rate                               : 46.875 FPS (1024 SPF)
Compression mode                         : Lossy
Delay relative to video                  : -83 ms
Stream size                              : 93.6 MiB (3%)
Title                                    : Orjinal Dil - Filmbol.org
Language                                 : English
Default                                  : No
Forced                                   : No

Text
ID                                       : 4
Format                                   : UTF-8
Codec ID                                 : S_TEXT/UTF8
Codec ID/Info                            : UTF-8 Plain Text
Duration                                 : 2 h 6 min
Bit rate                                 : 47 b/s
Count of elements                        : 1279
Stream size                              : 44.5 KiB (0%)
Title                                    : Türkçe - Filmbol.org
Language                                 : Turkish
Default                                  : No
Forced                                   : No

Film Detayları


 Karayip Korsanları 4: Gizemli Denizlerde

 Karayip Korsanları 4: Gizemli Denizlerde

 Karayip Korsanları 4: Gizemli Denizlerde


Film Fragmanı


Film Detayları

Uptobox ile indir

1Fichier ile indir

1Fichier'den İndiremiyor musun? Tıklayın!


Mega linki şuan da gizli. Kullanıma açmak için konuya yorum yapın ve ardından sayfayı yenileyin.

Mega


Bunun için üzgünüz ancak, bu linke sadece premium üyeler erişebilir.

Filmbol Cloud







Konu ile Alakalı Benzer Konular
Konular Yazar Yorumlar Okunma Son Yorum
Filmin Yayınlanma Tarihi: 2011
İlk Yenilmez: Kaptan Amerika (Captain America: The First Avenger) - 2011 - TR+ORG - 3D | tt0458339 BroserBros 1 33 11-04-2021, Saat: 22:18
Son Yorum: [email protected]
Filmin Yayınlanma Tarihi: 2011
Karayip Korsanları 5: Salazar’ın İntikamı (Pirates of the Caribbean: Dead Men Tell No Tales) - 2017 - TR+ORG - 3D | tt1790809 BroserBros 0 31 04-04-2021, Saat: 21:51
Son Yorum: BroserBros
Filmin Yayınlanma Tarihi: 2011
Arabalar 2 (Cars 2) - 2011 - TR+ORG - 3D BroserBros 2 279 13-03-2021, Saat: 10:19
Son Yorum: mussa
Filmin Yayınlanma Tarihi: 2011
Thor (Thor 1) - 2011 - TR+ORG - 3D | tt0800369 BroserBros 0 37 12-03-2021, Saat: 19:42
Son Yorum: BroserBros
Filmin Yayınlanma Tarihi: 2011
Şirinler (The Smurfs) - 2011 - TR+ORG - 3D BroserBros 2 598 25-02-2021, Saat: 02:48
Son Yorum: mussa

Hızlı Menü: