Filmbol Forum Film İndir FHD - FULL HD v Karayip Korsanları 3: Dünyanın Sonu (Pirates of the Caribbean: At World's End) - 2007 - TR+ORG - FHD - x264 | tt0449088

Premium Üyelik Al

Bildirimi Kapat
Mega linklerinin şikayet edilmemesi için global erişime kapatıp sadece yorum yapanlara açıyoruz. Bu linkleri gizleme işlemini mecburen yapıyoruz ve yorum yapmanızın siteye değil size faydası vardır. Teşekkürler yazmayı çok görüp, Random/Spam/Anlamsız mesajlar atarak forumu kirletip Mega linklerini açmaya çalışan kullanıcılara süresiz ban atacağız.


Karayip Korsanları 3: Dünyanın Sonu (Pirates of the Caribbean: At World's End) - 2007 - TR+ORG - FHD - x264 | tt0449088
BroserBros
Karayip Korsanları 3: Dünyanın Sonu (Pirates of the Caribbean: At World's End) - 2007 - TR+ORG - FHD - x264 | tt0449088
0
45
  • Derecelendirme: 0/5 - 0 oy
  • 1
  • 2
  • 3
  • 4
  • 5
Konuyu Okuyanlar:1 Ziyaretçi
Şuan Online!
Filmin Yayınlanma Tarihi: 2007 
WWW
Şuan Online!
BroserBros Kurucu Admin
*******
Admin



 Karayip Korsanları 3: Dünyanın Sonu



Jack Sparrow, ölüm mekanından dostlarının yardımı ile kurtulmuştur ancak, bu sefer karşılarına Davy Jones ve Lord Cutler Beckett çıkmıştır. Beckett, gizli bir anlaşma yapmıştır. Bu anlaşmaya göre Karayip Korsanlarının sonu yaklaşmaktadır. Jack, tüm dostlarını toplayacaktır ancak onları da ihanet ve tehlike beklemektedir.

Karayip Korsanları 3: Dünyanın Sonu (2007) (Pirates of the Caribbean: At World's End) | tt0449088 Filmi Imdb'den 600,000 kişi tarafından oylandı ve 7,1 puan aldı. Bu film için editör puanı %79 olarak belirlendi. İyi Seyirler!

Teknik Detaylar

Kod :
General
Unique ID                                : 269219203539882110330285687525666669902 (0xCA89BB89B7B5EBAC215EDEF5D5C7454E)
Complete name                            : /home/BroserBros/Desktop/6/Karayip.Korsanları.3.Dünyanın.Sonu.2007.FHD.BluRay.x264.TR.ENG.Filmbol.mkv
Format                                   : Matroska
Format version                           : Version 4
File size                                : 13.0 GiB
Duration                                 : 2 h 48 min
Overall bit rate                         : 11.1 Mb/s
Movie name                               : Karayip Korsanları: Dünyanın Sonu - Pirates of the Caribbean: At World's End - 2007 | Filmbol.org
Encoded date                             : UTC 2021-04-02 11:58:35
Writing application                      : mkvmerge v53.0.0 ('Fool's Gold') 64-bit
Writing library                          : libebml v1.4.1 + libmatroska v1.6.2
Attachments                              : CronosPro-Semibold.ttf / CronosPro-SemiboldIt.ttf / CronosPro-Bold.ttf

Video
ID                                       : 1
Format                                   : AVC
Format/Info                              : Advanced Video Codec
Format profile                           : [email protected]
Format settings                          : CABAC / 8 Ref Frames
Format settings, CABAC                   : Yes
Format settings, Reference frames        : 8 frames
Codec ID                                 : V_MPEG4/ISO/AVC
Duration                                 : 2 h 48 min
Bit rate                                 : 8 928 kb/s
Width                                    : 1 920 pixels
Height                                   : 800 pixels
Display aspect ratio                     : 2.40:1
Frame rate mode                          : Constant
Frame rate                               : 23.976 FPS
Color space                              : YUV
Chroma subsampling                       : 4:2:0
Bit depth                                : 8 bits
Scan type                                : Progressive
Bits/(Pixel*Frame)                       : 0.242
Stream size                              : 10.5 GiB (81%)
Title                                    : FHD - Filmbol.org
Writing library                          : x264 core 56 svn-680
Encoding settings                        : cabac=1 / ref=5 / deblock=1:-4:-4 / analyse=0x3:0x133 / me=umh / subme=7 / brdo=1 / mixed_ref=1 / me_range=16 / chroma_me=1 / trellis=1 / 8x8dct=1 / cqm=2 / deadzone=21,11 / chroma_qp_offset=0 / threads=3 / nr=0 / decimate=1 / mbaff=0 / bframes=3 / b_pyramid=1 / b_adapt=1 / b_bias=0 / direct=3 / wpredb=1 / bime=1 / keyint=250 / keyint_min=25 / scenecut=40(pre) / rc=2pass / bitrate=8928 / ratetol=1.0 / rceq='blurCplx^(1-qComp)' / qcomp=0.60 / qpmin=10 / qpmax=51 / qpstep=4 / cplxblur=20.0 / qblur=0.5 / ip_ratio=1.40 / pb_ratio=1.30 / aq=1:0.5:17.0
Language                                 : English
Default                                  : Yes
Forced                                   : No

Audio #1
ID                                       : 2
Format                                   : E-AC-3
Format/Info                              : Enhanced AC-3
Commercial name                          : Dolby Digital Plus
Codec ID                                 : A_EAC3
Duration                                 : 2 h 48 min
Bit rate mode                            : Constant
Bit rate                                 : 640 kb/s
Channel(s)                               : 6 channels
Channel layout                           : L R C LFE Ls Rs
Sampling rate                            : 48.0 kHz
Frame rate                               : 31.250 FPS (1536 SPF)
Compression mode                         : Lossy
Delay relative to video                  : 2 s 0 ms
Stream size                              : 772 MiB (6%)
Title                                    : Türkçe - Filmbol.org
Language                                 : Turkish
Service kind                             : Complete Main
Default                                  : Yes
Forced                                   : No

Audio #2
ID                                       : 3
Format                                   : DTS
Format/Info                              : Digital Theater Systems
Codec ID                                 : A_DTS
Duration                                 : 2 h 48 min
Bit rate mode                            : Constant
Bit rate                                 : 1 510 kb/s
Channel(s)                               : 6 channels
Channel layout                           : C L R Ls Rs LFE
Sampling rate                            : 48.0 kHz
Frame rate                               : 93.750 FPS (512 SPF)
Bit depth                                : 24 bits
Compression mode                         : Lossy
Stream size                              : 1.78 GiB (14%)
Title                                    : Orjinal Dil - Filmbol.org
Language                                 : English
Default                                  : No
Forced                                   : No

Text #1
ID                                       : 4
Format                                   : UTF-8
Codec ID                                 : S_TEXT/UTF8
Codec ID/Info                            : UTF-8 Plain Text
Duration                                 : 2 h 39 min
Bit rate                                 : 0 b/s
Count of elements                        : 3
Stream size                              : 100 Bytes (0%)
Title                                    : Türkçe FORCED - Filmbol.org
Language                                 : Turkish
Default                                  : Yes
Forced                                   : No

Text #2
ID                                       : 5
Format                                   : UTF-8
Codec ID                                 : S_TEXT/UTF8
Codec ID/Info                            : UTF-8 Plain Text
Duration                                 : 2 h 46 min
Bit rate                                 : 38 b/s
Count of elements                        : 1521
Stream size                              : 47.4 KiB (0%)
Title                                    : Türkçe - Filmbol.org
Language                                 : Turkish
Default                                  : No
Forced                                   : No

Text #3
ID                                       : 6
Format                                   : ASS
Codec ID                                 : S_TEXT/ASS
Codec ID/Info                            : Advanced Sub Station Alpha
Duration                                 : 2 h 46 min
Bit rate                                 : 75 b/s
Count of elements                        : 1532
Compression mode                         : Lossless
Stream size                              : 91.6 KiB (0%)
Title                                    : Orjinal Dil - Filmbol.org
Language                                 : English
Default                                  : No
Forced                                   : No

Film Detayları


 Karayip Korsanları 3: Dünyanın Sonu

 Karayip Korsanları 3: Dünyanın Sonu

 Karayip Korsanları 3: Dünyanın Sonu


Film Fragmanı


Film Detayları

Bunun için üzgünüz ancak, bu linke sadece premium üyeler erişebilir.

Filmbol Cloud







Hızlı Menü: