Filmbol Forum Film İndir BRRip XviD v The Empty Man (The Empty Man) - 2020 - TR - BRRip XviD | tt5867314
Bildirimi Kapat
Server kaynaklı problemden dolayı ciddi bir sorun yaşadık. Şuanda forum ve portal aktif halde ancak bazı problemler hala devam ediyor. Problem gördüğünüz yerleri bize bildirmeniz çok önemli. Teşekkürler.

Bildirimi Kapat
Merhaba , site giderlerini bir nebze olsun karşılamak adına link kısaltma servisleri kullanmaya başladık. İndirme linkleri sizi ouo.io adresinde yönlendirecek, 3 saniye geçtikten sonra Get Link butonuna tıklayarak linke ulaşacaksınız. Premium üyeler bu durumdan etkilenmeyecektir.


Premium Üyelik Al

The Empty Man (The Empty Man) - 2020 - TR - BRRip XviD | tt5867314
TheSteeL
The Empty Man (The Empty Man) - 2020 - TR - BRRip XviD | tt5867314
0
131
  • Derecelendirme: 0/5 - 0 oy
  • 1
  • 2
  • 3
  • 4
  • 5
Konuyu Okuyanlar:2 Ziyaretçi
Şuan Online!
Filmin Yayınlanma Tarihi: 2020 
Şuan Online!
TheSteeL Chief Executive Officer
******
CEO


 The Empty Man



The Empty Man Bir kızın kaybolması sonrası kısa bir süre travma geçiren ve ardından kızı bulmaya neredeyse yemin etmiş bir polisin hikayesi. Ancak işin içine girdikçe bu olayın arkasında normal insanlar olmadığını ve bu kişilerin doğa üstü güçlere sahip olduğunu anladığında, işler farklı bir boyuta ulaşır...

The Empty Man (2020) (The Empty Man) | tt5867314 Filmi Imdb'den 7000 kişi tarafından oylandı ve 5,9 puan aldı. Bu film için editör puanı %65 olarak belirlendi. İyi Seyirler!

Teknik Detaylar

Kod :
General
Unique ID                                : 966055779627187742753058436197809388 (0xBA0E3A306068ED45C9AB503E667CEC)
Complete name                            : /home/TheSteel/Desktop/2/The.Empty.Man.2020.HDRip.XViD.TR.Filmbol.avi
Format                                   : Matroska
Format version                           : Version 4
File size                                : 1.54 GiB
Duration                                 : 2 h 16 min
Overall bit rate                         : 1 611 kb/s
Movie name                               : The Empty Man - 2020 | Filmbol.org
Encoded date                             : UTC 2021-04-02 18:25:44
Writing application                      : mkvmerge v31.0.0 ('Dolores In A Shoestand') 64-bit
Writing library                          : libebml v1.3.6 + libmatroska v1.4.9
FileExtension_Invalid                    : mkv mk3d mka mks

Video
ID                                       : 1
Format                                   : MPEG-4 Visual
Format profile                           : [email protected]
Format settings, BVOP                    : No
Format settings, QPel                    : No
Format settings, GMC                     : No warppoints
Format settings, Matrix                  : Default (H.263)
Codec ID                                 : V_MS/VFW/FOURCC / XVID
Codec ID/Hint                            : XviD
Duration                                 : 2 h 16 min
Bit rate                                 : 1 481 kb/s
Width                                    : 720 pixels
Height                                   : 400 pixels
Display aspect ratio                     : 16:9
Frame rate mode                          : Constant
Frame rate                               : 23.976 FPS
Color space                              : YUV
Chroma subsampling                       : 4:2:0
Bit depth                                : 8 bits
Scan type                                : Progressive
Compression mode                         : Lossy
Bits/(Pixel*Frame)                       : 0.214
Stream size                              : 1.42 GiB (92%)
Title                                    : The Empty Man - 2020 | Filmbol.org
Writing library                          : Lavc58.35.100
Default                                  : Yes
Forced                                   : No

Audio
ID                                       : 2
Format                                   : MPEG Audio
Format version                           : Version 1
Format profile                           : Layer 3
Format settings                          : Joint stereo / MS Stereo
Codec ID                                 : A_MPEG/L3
Codec ID/Hint                            : MP3
Duration                                 : 2 h 16 min
Bit rate mode                            : Constant
Bit rate                                 : 128 kb/s
Channel(s)                               : 2 channels
Sampling rate                            : 48.0 kHz
Frame rate                               : 41.667 FPS (1152 SPF)
Compression mode                         : Lossy
Stream size                              : 125 MiB (8%)
Title                                    : The Empty Man - 2020 | Filmbol.org
Default                                  : Yes
Forced                                   : No

Film Detayları


 The Empty Man

 The Empty Man

 The Empty Man


Film Fragmanı


Film İndir



Zip Şifresi: filmbol.org Aşağıdaki butona tıklayarak kopyalabilirsiniz.



Uptobox ile indir

1Fichier ile indir

1Fichier'den İndiremiyor musun? Tıklayın!






Filmbol Cloud

Bunun için üzgünüz ancak, bu linke sadece premium üyeler erişebilir.




WWW


Hızlı Menü: