Filmbol Forum Film İndir BRRip XviD v Küçük Şeyler (The Little Things) - 2021 - TR - BRRip XviD | tt10016180
Bildirimi Kapat
Server kaynaklı problemden dolayı ciddi bir sorun yaşadık. Şuanda forum ve portal aktif halde ancak bazı problemler hala devam ediyor. Problem gördüğünüz yerleri bize bildirmeniz çok önemli. Teşekkürler.

Bildirimi Kapat
Merhaba , site giderlerini bir nebze olsun karşılamak adına link kısaltma servisleri kullanmaya başladık. İndirme linkleri sizi ouo.io adresinde yönlendirecek, 3 saniye geçtikten sonra Get Link butonuna tıklayarak linke ulaşacaksınız. Premium üyeler bu durumdan etkilenmeyecektir.


Premium Üyelik Al

Küçük Şeyler (The Little Things) - 2021 - TR - BRRip XviD | tt10016180
TheSteeL
Küçük Şeyler (The Little Things) - 2021 - TR - BRRip XviD | tt10016180
0
137
  • Derecelendirme: 0/5 - 0 oy
  • 1
  • 2
  • 3
  • 4
  • 5
Konuyu Okuyanlar:1 Ziyaretçi
Şuan Online!
Filmin Yayınlanma Tarihi: 2021 
Şuan Online!
TheSteeL Chief Executive Officer
******
CEO


 Küçük Şeyler



Bir seri katil ortalığı kasıp kavurmuş, önüne geçilemez bir hal almıştır. Kurallara bağlı kalarak onu yakalamaya çalışan bir polis, başarısız olmaya başlar. Onun arkadaşı ise kurallara bu kadar bağlı kalarak bunu yapamayacağını, biraz daha agresif olması gerektiğini savunur. İkili bu katili yakalamak için göreve verildiğinde ise tam bir görüş kargaşası yaşanmaya başlar...

Küçük Şeyler (2021) (The Little Things) | tt10016180 Filmi Imdb'den 50300 kişi tarafından oylandı ve 6,3 puan aldı. Bu film için editör puanı %70 olarak belirlendi. İyi Seyirler!

Teknik Detaylar

Kod :
General
Unique ID                                : 170911736575347500520615941117249516116 (0x80946733A4C1A65E85FD3025EED6F254)
Complete name                            : /home/TheSteel/Desktop/1/Küçük.Şeyler.2021.HDRip.XViD.TR.Filmbol.avi
Format                                   : Matroska
Format version                           : Version 4
File size                                : 1.22 GiB
Duration                                 : 2 h 7 min
Overall bit rate                         : 1 372 kb/s
Movie name                               : Küçük Şeyler - The Little Things - 2021 - Filmbol.org
Encoded date                             : UTC 2021-04-02 18:16:15
Writing application                      : mkvmerge v31.0.0 ('Dolores In A Shoestand') 64-bit
Writing library                          : libebml v1.3.6 + libmatroska v1.4.9
FileExtension_Invalid                    : mkv mk3d mka mks

Video
ID                                       : 1
Format                                   : MPEG-4 Visual
Format profile                           : Advanced [email protected]
Format settings                          : BVOP1 / Custom Matrix
Format settings, BVOP                    : 1
Format settings, QPel                    : No
Format settings, GMC                     : No warppoints
Format settings, Matrix                  : Custom
Codec ID                                 : V_MS/VFW/FOURCC / XVID
Codec ID/Hint                            : XviD
Duration                                 : 2 h 7 min
Bit rate                                 : 1 242 kb/s
Width                                    : 720 pixels
Height                                   : 304 pixels
Display aspect ratio                     : 2.35:1
Frame rate mode                          : Constant
Frame rate                               : 23.976 (23976/1000) FPS
Color space                              : YUV
Chroma subsampling                       : 4:2:0
Bit depth                                : 8 bits
Scan type                                : Progressive
Compression mode                         : Lossy
Bits/(Pixel*Frame)                       : 0.237
Stream size                              : 1.11 GiB (91%)
Title                                    : Küçük Şeyler - The Little Things - 2021 - Filmbol.org
Writing library                          : XviD 69
Default                                  : Yes
Forced                                   : No

Audio
ID                                       : 2
Format                                   : MPEG Audio
Format version                           : Version 1
Format profile                           : Layer 3
Format settings                          : Joint stereo / MS Stereo
Codec ID                                 : A_MPEG/L3
Codec ID/Hint                            : MP3
Duration                                 : 2 h 7 min
Bit rate mode                            : Constant
Bit rate                                 : 128 kb/s
Channel(s)                               : 2 channels
Sampling rate                            : 48.0 kHz
Frame rate                               : 41.667 FPS (1152 SPF)
Compression mode                         : Lossy
Stream size                              : 117 MiB (9%)
Title                                    : Küçük Şeyler - The Little Things - 2021 - Filmbol.org
Writing library                          : LAME3.99.5
Default                                  : Yes
Forced                                   : No

Film Detayları


 Küçük Şeyler

 Küçük Şeyler

 Küçük Şeyler


Film Fragmanı


Film İndir



Zip Şifresi: filmbol.org Aşağıdaki butona tıklayarak kopyalabilirsiniz.



Uptobox ile indir

1Fichier ile indir

1Fichier'den İndiremiyor musun? Tıklayın!





Filmbol Cloud

Bunun için üzgünüz ancak, bu linke sadece premium üyeler erişebilir.




WWW


Hızlı Menü: