Filmbol Forum Film İndir BRRip XviD v Şaka Peşinde (Bad Trip) - 2021 - TR - BRRip XviD | tt9684220
Bildirimi Kapat
Server kaynaklı problemden dolayı ciddi bir sorun yaşadık. Şuanda forum ve portal aktif halde ancak bazı problemler hala devam ediyor. Problem gördüğünüz yerleri bize bildirmeniz çok önemli. Teşekkürler.

Bildirimi Kapat
Merhaba , site giderlerini bir nebze olsun karşılamak adına link kısaltma servisleri kullanmaya başladık. İndirme linkleri sizi ouo.io adresinde yönlendirecek, 3 saniye geçtikten sonra Get Link butonuna tıklayarak linke ulaşacaksınız. Premium üyeler bu durumdan etkilenmeyecektir.


Premium Üyelik Al

Şaka Peşinde (Bad Trip) - 2021 - TR - BRRip XviD | tt9684220
TheSteeL
Şaka Peşinde (Bad Trip) - 2021 - TR - BRRip XviD | tt9684220
0
129
  • Derecelendirme: 0/5 - 0 oy
  • 1
  • 2
  • 3
  • 4
  • 5
Konuyu Okuyanlar:1 Ziyaretçi
Şuan Online!
Filmin Yayınlanma Tarihi: 2021 
Şuan Online!
TheSteeL Chief Executive Officer
******
CEO


 Şaka Peşinde



İnsanları trolleyip inanılmaz şakalar yapan bir çok insan var. Bunları YouTube gibi mecralardan da izliyoruz. Fakat şimdi izleyeceğiniz Şaka Peşinde filmi, bunlar ile aynı özelliklere sahip olmasına rağmen, çok daha profesyonel iki arkadaşın inanılmaz şaka hikâyeleri...

Şaka Peşinde (2021) (Bad Trip) | tt9684220 Filmi Imdb'den 9000 kişi tarafından oylandı ve 6,6 puan aldı. Bu film için editör puanı %68 olarak belirlendi. İyi Seyirler!

Teknik Detaylar

Kod :
General
Unique ID                                : 11980239864044444239815590078505248803 (0x9034F6DD2987C0030BBFFD2BF7F6823)
Complete name                            : /home/TheSteel/Desktop/2/Şaka.Peşinde.2020.HDRip.XViD.TR.Filmbol.avi
Format                                   : Matroska
Format version                           : Version 4
File size                                : 1.13 GiB
Duration                                 : 1 h 26 min
Overall bit rate                         : 1 859 kb/s
Movie name                               : Bad Trip - Şaka Peşinde - 2020 | Filmbol.org
Encoded date                             : UTC 2021-04-01 16:32:03
Writing application                      : mkvmerge v31.0.0 ('Dolores In A Shoestand') 64-bit
Writing library                          : libebml v1.3.6 + libmatroska v1.4.9
FileExtension_Invalid                    : mkv mk3d mka mks

Video
ID                                       : 1
Format                                   : MPEG-4 Visual
Format profile                           : Advanced [email protected]
Format settings                          : BVOP2
Format settings, BVOP                    : 2
Format settings, QPel                    : No
Format settings, GMC                     : No warppoints
Format settings, Matrix                  : Default (MPEG)
Muxing mode                              : Packed bitstream
Codec ID                                 : V_MS/VFW/FOURCC / XVID
Codec ID/Hint                            : XviD
Duration                                 : 1 h 26 min
Bit rate                                 : 1 729 kb/s
Width                                    : 720 pixels
Height                                   : 404 pixels
Display aspect ratio                     : 16:9
Frame rate mode                          : Constant
Frame rate                               : 23.976 (24000/1001) FPS
Original frame rate                      : 23.976 (23976/1000) FPS
Color space                              : YUV
Chroma subsampling                       : 4:2:0
Bit depth                                : 8 bits
Scan type                                : Progressive
Compression mode                         : Lossy
Bits/(Pixel*Frame)                       : 0.248
Stream size                              : 1.05 GiB (93%)
Title                                    : Bad Trip - Şaka Peşinde - 2020 | Filmbol.org
Writing library                          : XviD 64
Default                                  : Yes
Forced                                   : No

Audio
ID                                       : 2
Format                                   : MPEG Audio
Format version                           : Version 1
Format profile                           : Layer 3
Format settings                          : Joint stereo / MS Stereo
Codec ID                                 : A_MPEG/L3
Codec ID/Hint                            : MP3
Duration                                 : 1 h 26 min
Bit rate mode                            : Constant
Bit rate                                 : 128 kb/s
Channel(s)                               : 2 channels
Sampling rate                            : 48.0 kHz
Frame rate                               : 41.667 FPS (1152 SPF)
Compression mode                         : Lossy
Stream size                              : 79.4 MiB (7%)
Title                                    : Bad Trip - Şaka Peşinde - 2020 | Filmbol.org
Default                                  : Yes
Forced                                   : No

Film Detayları


 Şaka Peşinde

 Şaka Peşinde

 Şaka Peşinde


Film Fragmanı


Film İndir



Zip Şifresi: filmbol.org Aşağıdaki butona tıklayarak kopyalabilirsiniz.



Uptobox ile indir

1Fichier ile indir

1Fichier'den İndiremiyor musun? Tıklayın!





Filmbol Cloud

Bunun için üzgünüz ancak, bu linke sadece premium üyeler erişebilir.




WWW


Hızlı Menü: