Filmbol Forum Film İndir BRRip XviD v The Debt Collector 2 (The Debt Collector 2) - 2020 - TR - BRRip XviD | tt10933680

Premium Üyelik Al

Bildirimi Kapat
Mega linklerinin şikayet edilmemesi için global erişime kapatıp sadece yorum yapanlara açıyoruz. Bu linkleri gizleme işlemini mecburen yapıyoruz ve yorum yapmanızın siteye değil size faydası vardır. Teşekkürler yazmayı çok görüp, Random/Spam/Anlamsız mesajlar atarak forumu kirletip Mega linklerini açmaya çalışan kullanıcılara süresiz ban atacağız.


The Debt Collector 2 (The Debt Collector 2) - 2020 - TR - BRRip XviD | tt10933680
TheSteeL
The Debt Collector 2 (The Debt Collector 2) - 2020 - TR - BRRip XviD | tt10933680
0
130
  • Derecelendirme: 0/5 - 0 oy
  • 1
  • 2
  • 3
  • 4
  • 5
Konuyu Okuyanlar:3 Ziyaretçi
Şuan Online!
Filmin Yayınlanma Tarihi: 2020 
WWW
Şuan Online!
TheSteeL Süper Moderatör
*****
Süper Moderatör



 The Debt Collector 2



French ve Sue ikilisi, işlerini iyi yapan iki adamdır. Fakat sorun şu ki, işleri pek ahlaklı değildir. Yasadışı olarak borç tahsilatı yapan ikili, insanları öldürmeden ama birazcık incitecek şekilde burun kırar, parmak sökerler. Fakat işler her zaman yolunda gitmez, bir gün sert bir kayaya çarpar ve başları fena bir şekilde belaya girer...

The Debt Collector 2 (2020) (The Debt Collector 2) | tt10933680 Filmi Imdb'den 3200 kişi tarafından oylandı ve 5,7 puan aldı. Bu film için editör puanı %58 olarak belirlendi. İyi Seyirler!

Teknik Detaylar

Kod :
General
Unique ID                                : 243549598522364106825391273137577609296 (0xB739F24C1AE51B12E9E1A9A292FB4850)
Complete name                            : /home/TheSteel/Desktop/1/The.Debt.Collector.2.2020.BDRip.XViD.TR.Filmbol.avi
Format                                   : Matroska
Format version                           : Version 4
File size                                : 1.28 GiB
Duration                                 : 1 h 37 min
Overall bit rate                         : 1 882 kb/s
Movie name                               : The Debt Collector 2 - 2020 | Filmbol.org
Encoded date                             : UTC 2021-03-31 14:32:54
Writing application                      : mkvmerge v31.0.0 ('Dolores In A Shoestand') 64-bit
Writing library                          : libebml v1.3.6 + libmatroska v1.4.9
FileExtension_Invalid                    : mkv mk3d mka mks

Video
ID                                       : 1
Format                                   : MPEG-4 Visual
Format profile                           : Advanced [email protected]
Format settings                          : BVOP1 / Custom Matrix
Format settings, BVOP                    : 1
Format settings, QPel                    : No
Format settings, GMC                     : No warppoints
Format settings, Matrix                  : Custom
Codec ID                                 : V_MS/VFW/FOURCC / XVID
Codec ID/Hint                            : XviD
Duration                                 : 1 h 37 min
Bit rate                                 : 1 753 kb/s
Width                                    : 720 pixels
Height                                   : 304 pixels
Display aspect ratio                     : 2.35:1
Frame rate mode                          : Constant
Frame rate                               : 23.976 (23976/1000) FPS
Original frame rate                      : 23.976 (24000/1001) FPS
Color space                              : YUV
Chroma subsampling                       : 4:2:0
Bit depth                                : 8 bits
Scan type                                : Progressive
Compression mode                         : Lossy
Bits/(Pixel*Frame)                       : 0.334
Stream size                              : 1.19 GiB (93%)
Title                                    : The Debt Collector 2 - 2020 | Filmbol.org
Writing library                          : XviD 69
Default                                  : Yes
Forced                                   : No

Audio
ID                                       : 2
Format                                   : MPEG Audio
Format version                           : Version 1
Format profile                           : Layer 3
Format settings                          : Joint stereo / MS Stereo
Codec ID                                 : A_MPEG/L3
Codec ID/Hint                            : MP3
Duration                                 : 1 h 37 min
Bit rate mode                            : Constant
Bit rate                                 : 128 kb/s
Channel(s)                               : 2 channels
Sampling rate                            : 48.0 kHz
Frame rate                               : 41.667 FPS (1152 SPF)
Compression mode                         : Lossy
Stream size                              : 89.0 MiB (7%)
Title                                    : The Debt Collector 2 - 2020 | Filmbol.org
Writing library                          : LAME3.99.5
Default                                  : Yes
Forced                                   : No

Film Detayları


 The Debt Collector 2

 The Debt Collector 2

 The Debt Collector 2


Film Fragmanı


Film Detayları


Uptobox ile indir

1Fichier ile indir

1Fichier'den İndiremiyor musun? Tıklayın!


Mega linki şuan da gizli. Kullanıma açmak için konuya yorum yapın ve ardından sayfayı yenileyin.

Mega


Bunun için üzgünüz ancak, bu linke sadece premium üyeler erişebilir.

Filmbol Cloud







Hızlı Menü: