Filmbol Forum Film İndir BRRip XviD v Nefesini Tut (Don't Breathe) - 2016 - TR - BRRip XviD | tt4160708
Mega linklerinin şikayet edilmemesi için global erişime kapatıp sadece yorum yapanlara açıyoruz. Bu linkleri gizleme işlemini mecburen yapıyoruz ve yorum yapmanızın siteye değil size faydası vardır. Teşekürler yazmayı çok görüp, Random/Spam mesajlar atarak Mega linklerini açmaya çalışan kullanıcılara önce süresiz ban, devam ederse IP ban atacağız.
Filmbol'da moderatör olmak ister misiniz? Bizimle iletişime geçmek için tıklayın!
Nefesini Tut (Don't Breathe) - 2016 - TR - BRRip XviD | tt4160708
BroserBros
Nefesini Tut (Don't Breathe) - 2016 - TR - BRRip XviD | tt4160708
3
2453
  • Derecelendirme: 0/5 - 0 oy
  • 1
  • 2
  • 3
  • 4
  • 5
Konuyu Okuyanlar:1 Ziyaretçi
Şuan Online!
Filmin Yayınlanma Tarihi: 2016 
WWW
Şuan Online!
BroserBros Kurucu Admin
*******
Admin



 Nefesini Tut



Nefesini Tut kör bir adamın evine girip hırsızlık yaparak yakalanmadan kurtulabileceklerini düşünen bir grup genci temel alıyor. İstismarcı annesinden kurtulup, kız kardeşini her ikisi için de sonu yokmuş gibi görünen bu hayattan kurtarmaya kararlı olan Rocky ve arkadaşları Alex ile Money'nin planları oldukça basittir. Kör bir adamın evinde kilitli tuttuğu odaya girmek, onun engelli oluşundan yararlanarak evini soymak. Ancak işler tam olarak planlandığı gibi gitmez. Zira hafife aldıkları ev sahibi aslında oldukça tehlikeli bir adamdır. Planda yanıldıklarını anladıklarında kusursuz bir suç yerine ölümcül bir hata işlediklerini görürler.

Nefesini Tut (2016) (Don't Breathe) | tt4160708 Filmi Imdb'den 230,000 kişi tarafından oylandı ve 7,1 puan aldı. Bu film için editör puanı %79 olarak belirlendi. İyi Seyirler!

Teknik Detaylar

Kod :
General
Unique ID                                : 85391189548373398932903186643037838906 (0x403DBEB15C4733E70C92AE4869F5DE3A)
Complete name                            : /home/BroserBros/Desktop/4/Nefesini.Tut.2016.BRRip.XviD.TR.Filmbol.avi
Format                                   : Matroska
Format version                           : Version 4
File size                                : 1.13 GiB
Duration                                 : 1 h 28 min
Overall bit rate                         : 1 831 kb/s
Movie name                               : Nefesini Tut - Don't Breathe - 2016 | Filmbol.org
Encoded date                             : UTC 2021-04-13 12:51:30
Writing application                      : mkvmerge v53.0.0 ('Fool's Gold') 64-bit
Writing library                          : libebml v1.4.1 + libmatroska v1.6.2
FileExtension_Invalid                    : mkv mk3d mka mks

Video
ID                                       : 1
Format                                   : MPEG-4 Visual
Format profile                           : Advanced [email protected]
Format settings                          : BVOP2
Format settings, BVOP                    : 2
Format settings, QPel                    : No
Format settings, GMC                     : No warppoints
Format settings, Matrix                  : Default (H.263)
Muxing mode                              : Packed bitstream
Codec ID                                 : V_MS/VFW/FOURCC / XVID
Codec ID/Hint                            : XviD
Duration                                 : 1 h 28 min
Bit rate                                 : 1 701 kb/s
Width                                    : 720 pixels
Height                                   : 304 pixels
Display aspect ratio                     : 2.35:1
Frame rate mode                          : Constant
Frame rate                               : 23.976 (23976/1000) FPS
Color space                              : YUV
Chroma subsampling                       : 4:2:0
Bit depth                                : 8 bits
Scan type                                : Progressive
Compression mode                         : Lossy
Bits/(Pixel*Frame)                       : 0.324
Stream size                              : 1.05 GiB (93%)
Title                                    : Nefesini Tut - Don't Breathe - 2016 | Filmbol.org
Writing library                          : XviD 66
Default                                  : Yes
Forced                                   : No

Audio
ID                                       : 2
Format                                   : MPEG Audio
Format version                           : Version 1
Format profile                           : Layer 3
Format settings                          : Joint stereo / MS Stereo
Codec ID                                 : A_MPEG/L3
Codec ID/Hint                            : MP3
Duration                                 : 1 h 28 min
Bit rate mode                            : Constant
Bit rate                                 : 128 kb/s
Channel(s)                               : 2 channels
Sampling rate                            : 48.0 kHz
Frame rate                               : 41.667 FPS (1152 SPF)
Compression mode                         : Lossy
Stream size                              : 81.1 MiB (7%)
Title                                    : Nefesini Tut - Don't Breathe - 2016 | Filmbol.org
Writing library                          : LAME3.99.5
Default                                  : Yes
Forced                                   : No

Film Detayları


 Nefesini Tut

 Nefesini Tut

 Nefesini Tut


Film Fragmanı


Film Detayları


Uptobox ile indir

1Fichier ile indir

1Fichier'den İndiremiyor musun? Tıklayın!


Mega linki şuan da gizli. Kullanıma açmak için konuya yorum yapın ve ardından sayfayı yenileyin.

Mega


Bunun için üzgünüz ancak, bu linke sadece premium üyeler erişebilir.

Filmbol Cloud





Şuan Online!
Şuan Online!
BroserBros Kurucu Admin
*******
Admin

07.12.2019 Güncelleme Notu:

Linkler yenilendi. Kırık linkler kaldırıldı ve Genel Konu Düzenlemesi Yapıldı
Şuan Offine!
Şuan Offine!
cemsav97 Süper Üye
***
Super Üye

  • Konular0
  • Mesajlar67
  • Rep puanı 2
Güzele benzio
Şuan Online!
Şuan Online!
BroserBros Kurucu Admin
*******
Admin

15.04.2021 Yönetici Notu:

Kırık linkler kontrol edildi, kaldırıldı ve yenilendi. Tüm linkler tamamen çalışır durumda.


Hızlı Menü: