Filmbol Forum Film İndir FHD - FULL HD v John Wick (John Wick 1) - 2014 - TR+ORG - FHD - x264 | tt2911666
Bildirimi Kapat
Server kaynaklı problemden dolayı ciddi bir sorun yaşadık. Şuanda forum ve portal aktif halde ancak bazı problemler hala devam ediyor. Problem gördüğünüz yerleri bize bildirmeniz çok önemli. Teşekkürler.

Bildirimi Kapat
Merhaba , site giderlerini bir nebze olsun karşılamak adına link kısaltma servisleri kullanmaya başladık. İndirme linkleri sizi ouo.io adresinde yönlendirecek, 3 saniye geçtikten sonra Get Link butonuna tıklayarak linke ulaşacaksınız. Premium üyeler bu durumdan etkilenmeyecektir.


Premium Üyelik Al

John Wick (John Wick 1) - 2014 - TR+ORG - FHD - x264 | tt2911666
BroserBros
John Wick (John Wick 1) - 2014 - TR+ORG - FHD - x264 | tt2911666
3
110
  • Derecelendirme: 0/5 - 0 oy
  • 1
  • 2
  • 3
  • 4
  • 5
Konuyu Okuyanlar:1 Ziyaretçi
Şuan Online!
Filmin Yayınlanma Tarihi: 2014 
Şuan Online!
BroserBros Kurucu Admin
*******
Admin


 John Wick



John Wick, emekliye ayrılmış bir tetikçidir. Emekliliğinin tadını çıkarırken karısının yakalandığı amansız hastalıkla hayatı altüst olur. Karısından kendisine kalan en değerli varlığı ve can yoldaşı köpeğidir. Ancak evine dalan üç gangster onu da öldürür. Gansterlerden biri, mafya babası Viggo Tasarov’un oğlu Josef Tasarov’dur ve John’un daha önce birlikte çalıştığı bir adamdır. Artık kaybedecek hiçbir şeyi de kalmayan John Wick’in tek istediği intikamdır ve New York sokaklarında düşmanlarıyla nefes kesen bir kovalamacanın içine girer.
Yönetmenliğini David Leitch ve Chad Stahelski ikilisinin üstlendiği filmin başrolünde Keanu Reevus yer alıyor.

John Wick (2014) (John Wick 1) | tt2911666 Filmi Imdb'den 550,000 kişi tarafından oylandı ve 7,4 puan aldı. Bu film için editör puanı %92 olarak belirlendi. İyi Seyirler!

Teknik Detaylar

Kod :
General
Unique ID                                : 166747290605734358787521273184334141890 (0x7D725C29C429106403788B62595859C2)
Complete name                            : /home/BroserBros/Desktop/8/John.Wick.2014.FHD.BluRay.x264.TR.ENG.Filmbol.mkv
Format                                   : Matroska
Format version                           : Version 4
File size                                : 3.25 GiB
Duration                                 : 1 h 41 min
Overall bit rate                         : 4 592 kb/s
Movie name                               : John Wick - 2014 | Filmbol.org
Encoded date                             : UTC 2021-03-29 15:14:20
Writing application                      : mkvmerge v53.0.0 ('Fool's Gold') 64-bit
Writing library                          : libebml v1.4.1 + libmatroska v1.6.2
Cover                                    : Yes
Attachments                              : cover.jpg / small_cover.jpg / cover_land.jpg / small_cover_land.jpg

Video
ID                                       : 1
Format                                   : AVC
Format/Info                              : Advanced Video Codec
Format profile                           : [email protected]
Format settings                          : CABAC / 5 Ref Frames
Format settings, CABAC                   : Yes
Format settings, Reference frames        : 5 frames
Codec ID                                 : V_MPEG4/ISO/AVC
Duration                                 : 1 h 41 min
Bit rate                                 : 3 500 kb/s
Width                                    : 1 920 pixels
Height                                   : 800 pixels
Display aspect ratio                     : 2.40:1
Frame rate mode                          : Constant
Frame rate                               : 23.976 (24000/1001) FPS
Color space                              : YUV
Chroma subsampling                       : 4:2:0
Bit depth                                : 8 bits
Scan type                                : Progressive
Bits/(Pixel*Frame)                       : 0.095
Stream size                              : 2.47 GiB (76%)
Title                                    : FHD - Filmbol.org
Writing library                          : x264 core 157 r2935 545de2f
Encoding settings                        : cabac=1 / ref=5 / deblock=1:-1:-1 / analyse=0x3:0x133 / me=umh / subme=10 / psy=1 / psy_rd=1.00:0.15 / mixed_ref=1 / me_range=24 / chroma_me=1 / trellis=2 / 8x8dct=1 / cqm=0 / deadzone=21,11 / fast_pskip=1 / chroma_qp_offset=-3 / threads=12 / lookahead_threads=2 / sliced_threads=0 / nr=0 / decimate=1 / interlaced=0 / bluray_compat=0 / constrained_intra=0 / bframes=8 / b_pyramid=2 / b_adapt=2 / b_bias=0 / direct=3 / weightb=1 / open_gop=0 / weightp=2 / keyint=250 / keyint_min=23 / scenecut=40 / intra_refresh=0 / rc_lookahead=60 / rc=2pass / mbtree=1 / bitrate=3500 / ratetol=1.0 / qcomp=0.60 / qpmin=0 / qpmax=69 / qpstep=4 / cplxblur=20.0 / qblur=0.5 / ip_ratio=1.40 / aq=1:1.00
Default                                  : Yes
Forced                                   : No
Color range                              : Limited
Color primaries                          : BT.709
Transfer characteristics                 : BT.709
Matrix coefficients                      : BT.709

Audio #1
ID                                       : 2
Format                                   : AC-3
Format/Info                              : Audio Coding 3
Commercial name                          : Dolby Digital
Codec ID                                 : A_AC3
Duration                                 : 1 h 41 min
Bit rate mode                            : Constant
Bit rate                                 : 448 kb/s
Channel(s)                               : 6 channels
Channel layout                           : L R C LFE Ls Rs
Sampling rate                            : 48.0 kHz
Frame rate                               : 31.250 FPS (1536 SPF)
Compression mode                         : Lossy
Stream size                              : 324 MiB (10%)
Title                                    : Türkçe - Filmbol.org
Language                                 : Turkish
Service kind                             : Complete Main
Default                                  : Yes
Forced                                   : No

Audio #2
ID                                       : 3
Format                                   : AC-3
Format/Info                              : Audio Coding 3
Commercial name                          : Dolby Digital
Codec ID                                 : A_AC3
Duration                                 : 1 h 41 min
Bit rate mode                            : Constant
Bit rate                                 : 640 kb/s
Channel(s)                               : 6 channels
Channel layout                           : L R C LFE Ls Rs
Sampling rate                            : 48.0 kHz
Frame rate                               : 31.250 FPS (1536 SPF)
Compression mode                         : Lossy
Stream size                              : 463 MiB (14%)
Title                                    : Orjinal Dil - Filmbol.org
Language                                 : English
Service kind                             : Complete Main
Default                                  : No
Forced                                   : No

Text #1
ID                                       : 4
Format                                   : UTF-8
Codec ID                                 : S_TEXT/UTF8
Codec ID/Info                            : UTF-8 Plain Text
Duration                                 : 1 h 34 min
Bit rate                                 : 24 b/s
Count of elements                        : 478
Stream size                              : 16.6 KiB (0%)
Title                                    : Türkçe - Filmbol.org
Language                                 : Turkish
Default                                  : No
Forced                                   : No

Text #2
ID                                       : 5
Format                                   : PGS
Muxing mode                              : zlib
Codec ID                                 : S_HDMV/PGS
Codec ID/Info                            : Picture based subtitle format used on BDs/HD-DVDs
Duration                                 : 1 h 33 min
Bit rate                                 : 16.3 kb/s
Count of elements                        : 1121
Stream size                              : 10.9 MiB (0%)
Title                                    : Orjinal Dil - Filmbol.org
Language                                 : English
Default                                  : No
Forced                                   : No

Film Detayları


 John Wick

 John Wick

 John Wick


Film Fragmanı


Film İndir



Zip Şifresi: filmbol.org Aşağıdaki butona tıklayarak kopyalabilirsiniz.





Filmbol Cloud

Bunun için üzgünüz ancak, bu linke sadece premium üyeler erişebilir.




WWW
Şuan Offine!
Şuan Offine!
Aybek Yeni Üye
*
Üye
  • Konular0
  • Mesajlar24
  • Rep puanı 0
Teşekkürler.
Şuan Offine!
Şuan Offine!
MertSw Yeni Üye
*
Üye
  • Konular0
  • Mesajlar11
  • Rep puanı 0
Teşekkürler.
Şuan Offine!
Şuan Offine!
gowlet Yeni Üye
*
Üye
  • Konular0
  • Mesajlar6
  • Rep puanı 0
Teşekkürler.


Hızlı Menü: