Filmbol Forum Film İndir UHD - ULTRA HD - 4K v Ex Machina (Ex Machina) - 2014 - TR+ORG - 4K (Re-Encoding 1080P) | HEVC - 10Bit-x265 | tt0470752
Bildirimi Kapat
Server kaynaklı problemden dolayı ciddi bir sorun yaşadık. Şuanda forum ve portal aktif halde ancak bazı problemler hala devam ediyor. Problem gördüğünüz yerleri bize bildirmeniz çok önemli. Teşekkürler.

Bildirimi Kapat
Merhaba , site giderlerini bir nebze olsun karşılamak adına link kısaltma servisleri kullanmaya başladık. İndirme linkleri sizi ouo.io adresinde yönlendirecek, 3 saniye geçtikten sonra Get Link butonuna tıklayarak linke ulaşacaksınız. Premium üyeler bu durumdan etkilenmeyecektir.


Premium Üyelik Al

Ex Machina (Ex Machina) - 2014 - TR+ORG - 4K (Re-Encoding 1080P) | HEVC - 10Bit-x265 | tt0470752
BroserBros
Ex Machina (Ex Machina) - 2014 - TR+ORG - 4K (Re-Encoding 1080P) | HEVC - 10Bit-x265 | tt0470752
1
103
  • Derecelendirme: 0/5 - 0 oy
  • 1
  • 2
  • 3
  • 4
  • 5
Konuyu Okuyanlar:1 Ziyaretçi
Şuan Online!
Filmin Yayınlanma Tarihi: 2014 
Şuan Online!
BroserBros Kurucu Admin
*******
Admin


 Ex Machina



Henüz 24 yaşındaki Caleb, sadece Silikon Vadisi’nin değil dünyanın da en önemli teknoloji şirketinde yazılım uzmanı olarak çalışmaktadır. Şirketin gizemli CEO’su Nathan ise hem şirketten hem insanlardan uzakta, özel bir dağ evinde yaşamaktadır. Caleb, düzenlenen bir yarışmada, Nathan’ın dağ evinde 1 haftalık bir ‘ödül’ kazanır. Fakat içine çekileceği deneyden habersizdir. ‘Ava’ adında güzel bir robot kızın bedeninde, dünyanın ilk gerçek yapay zekası Caleb’i beklemektedir. Yönetmenliğini ve senaristliğini Alex Garland’ın üstlendiği bilimkurgu filminin başrollerinde Oscar Isaac, Domhnall Gleeson ve Alicia Vikander yer alıyor. Yılın en merakla beklenen filmlerinden Ex Machina, “insanlık sonrası fütüristik şok filmi” ve “vizyoner bir bilimkurgu” olarak şimdiden kült filmler arasına girdi.

Ex Machina (2014) (Ex Machina) | tt0470752 Filmi Imdb'den 480,000 kişi tarafından oylandı ve 7,7 puan aldı. Bu film için editör puanı %85 olarak belirlendi. İyi Seyirler!

Teknik Detaylar

Kod :
General
Unique ID                                : 12007269357495443484908740187134924616 (0x9088415FE4E47ACFDC9A5087E3C9748)
Complete name                            : /home/BroserBros/Desktop/6/Ex.Machina.2015.1080P.4K.BluRay.x265.10Bit.HEVC.TR.ENG.Filmbol.mkv
Format                                   : Matroska
Format version                           : Version 4
File size                                : 4.58 GiB
Duration                                 : 1 h 48 min
Overall bit rate                         : 6 069 kb/s
Movie name                               : Ex Machina - 2015 | Filmbol.org
Encoded date                             : UTC 2021-03-29 12:43:08
Writing application                      : mkvmerge v53.0.0 ('Fool's Gold') 64-bit
Writing library                          : libebml v1.4.1 + libmatroska v1.6.2
Cover                                    : Yes
Attachments                              : Cover.jpg / Cover2.jpg / Plaquette.jpg / Poster.jpg / Poster2.jpg / Poster3.jpg / Poster4.jpg

Video
ID                                       : 1
Format                                   : HEVC
Format/Info                              : High Efficiency Video Coding
Format profile                           : Main [email protected]@Main
Codec ID                                 : V_MPEGH/ISO/HEVC
Duration                                 : 1 h 48 min
Bit rate                                 : 4 009 kb/s
Width                                    : 1 920 pixels
Height                                   : 804 pixels
Display aspect ratio                     : 2.40:1
Frame rate mode                          : Constant
Frame rate                               : 23.976 (24000/1001) FPS
Color space                              : YUV
Chroma subsampling                       : 4:2:0
Bit depth                                : 10 bits
Bits/(Pixel*Frame)                       : 0.108
Stream size                              : 3.02 GiB (66%)
Title                                    : 4K (Re-Encoding 1080P) - Filmbol.org
Writing library                          : x265 1.9:[Windows][GCC 4.9.2][64 bit] 10bit
Encoding settings                        : wpp / ctu=64 / min-cu-size=8 / max-tu-size=32 / tu-intra-depth=3 / tu-inter-depth=3 / me=3 / subme=4 / merange=57 / rect / amp / max-merge=4 / temporal-mvp / no-early-skip / rdpenalty=0 / no-tskip / no-tskip-fast / strong-intra-smoothing / no-lossless / no-cu-lossless / no-constrained-intra / no-fast-intra / open-gop / no-temporal-layers / interlace=0 / keyint=240 / min-keyint=24 / scenecut=40 / rc-lookahead=40 / lookahead-slices=0 / bframes=8 / bframe-bias=0 / b-adapt=2 / ref=5 / limit-refs=1 / limit-modes / weightp / weightb / aq-mode=1 / qg-size=32 / aq-strength=1.00 / cbqpoffs=0 / crqpoffs=0 / rd=6 / psy-rd=2.00 / rdoq-level=2 / psy-rdoq=1.00 / signhide / deblock / sao / no-sao-non-deblock / b-pyramid / cutree / no-intra-refresh / rc=crf / crf=15.9 / qcomp=0.60 / qpmin=0 / qpmax=51 / qpstep=4 / ipratio=1.40 / pbratio=1.30
Default                                  : Yes
Forced                                   : No
Color range                              : Limited
Color primaries                          : BT.709
Transfer characteristics                 : BT.709
Matrix coefficients                      : BT.709

Audio #1
ID                                       : 2
Format                                   : AC-3
Format/Info                              : Audio Coding 3
Commercial name                          : Dolby Digital
Codec ID                                 : A_AC3
Duration                                 : 1 h 48 min
Bit rate mode                            : Constant
Bit rate                                 : 448 kb/s
Channel(s)                               : 6 channels
Channel layout                           : L R C LFE Ls Rs
Sampling rate                            : 48.0 kHz
Frame rate                               : 31.250 FPS (1536 SPF)
Compression mode                         : Lossy
Delay relative to video                  : -83 ms
Stream size                              : 346 MiB (7%)
Title                                    : Türkçe - Filmbol.org
Language                                 : Turkish
Service kind                             : Complete Main
Default                                  : Yes
Forced                                   : No

Audio #2
ID                                       : 3
Format                                   : AAC LC
Format/Info                              : Advanced Audio Codec Low Complexity
Codec ID                                 : A_AAC-2
Duration                                 : 1 h 48 min
Bit rate                                 : 93.7 kb/s
Channel(s)                               : 2 channels
Channel layout                           : L R
Sampling rate                            : 48.0 kHz
Frame rate                               : 46.875 FPS (1024 SPF)
Compression mode                         : Lossy
Delay relative to video                  : -83 ms
Stream size                              : 72.4 MiB (2%)
Title                                    : Orjinal Dil - Filmbol.org
Language                                 : English
Default                                  : No
Forced                                   : No

Audio #3
ID                                       : 4
Format                                   : DTS
Format/Info                              : Digital Theater Systems
Codec ID                                 : A_DTS
Duration                                 : 1 h 48 min
Bit rate mode                            : Constant
Bit rate                                 : 1 509 kb/s
Channel(s)                               : 6 channels
Channel layout                           : C L R Ls Rs LFE
Sampling rate                            : 48.0 kHz
Frame rate                               : 93.750 FPS (512 SPF)
Bit depth                                : 24 bits
Compression mode                         : Lossy
Delay relative to video                  : -83 ms
Stream size                              : 1.14 GiB (25%)
Title                                    : Orjinal Dil DTS - Filmbol.org
Language                                 : English
Default                                  : No
Forced                                   : No

Text
ID                                       : 5
Format                                   : UTF-8
Codec ID                                 : S_TEXT/UTF8
Codec ID/Info                            : UTF-8 Plain Text
Duration                                 : 1 h 41 min
Bit rate                                 : 48 b/s
Count of elements                        : 893
Stream size                              : 36.1 KiB (0%)
Title                                    : Türkçe - Filmbol.org
Language                                 : Turkish
Default                                  : Yes
Forced                                   : No

Film Detayları


 Ex Machina

 Ex Machina

 Ex Machina


Film Fragmanı


Film İndir



Zip Şifresi: filmbol.org Aşağıdaki butona tıklayarak kopyalabilirsiniz.


Bu filmin orijinal DVD'si 4K olarak yayınlanmadığı için, tarafımızca yeniden x265 codec yapısı ile encode edilmiş ve genişlik ve yükseklik değeri sabit kalsa da bitrate oranı artırılmıştır. Sürüm 4K ile aynı kaliteye getirilmiştir.





Filmbol Cloud

Bunun için üzgünüz ancak, bu linke sadece premium üyeler erişebilir.




WWW
Şuan Online!
Şuan Online!
neco52 Yeni Üye
*
Üye
  • Konular0
  • Mesajlar105
  • Rep puanı 0
Teşekkürler.


Hızlı Menü: