Filmbol Forum Film İndir FHD - FULL HD v Deadpool 2 (Deadpool 2) - 2018 - TR+ORG - FHD - x264 | tt5463162
Bildirimi Kapat
Server kaynaklı problemden dolayı ciddi bir sorun yaşadık. Şuanda forum ve portal aktif halde ancak bazı problemler hala devam ediyor. Problem gördüğünüz yerleri bize bildirmeniz çok önemli. Teşekkürler.

Bildirimi Kapat
Merhaba , site giderlerini bir nebze olsun karşılamak adına link kısaltma servisleri kullanmaya başladık. İndirme linkleri sizi ouo.io adresinde yönlendirecek, 3 saniye geçtikten sonra Get Link butonuna tıklayarak linke ulaşacaksınız. Premium üyeler bu durumdan etkilenmeyecektir.


Premium Üyelik Al

Deadpool 2 (Deadpool 2) - 2018 - TR+ORG - FHD - x264 | tt5463162
BroserBros
Deadpool 2 (Deadpool 2) - 2018 - TR+ORG - FHD - x264 | tt5463162
2
105
  • Derecelendirme: 0/5 - 0 oy
  • 1
  • 2
  • 3
  • 4
  • 5
Konuyu Okuyanlar:1 Ziyaretçi
Şuan Online!
Filmin Yayınlanma Tarihi: 2018 
Şuan Online!
BroserBros Kurucu Admin
*******
Admin


 Deadpool 2



Deadpool 2 (2018) Türkçe Dublaj Bluray Brrip-Xvid İndir | Kısa özet:

Deadpool, kahramanlık işlerini devam ettirmekte, bir yandan da gündelik hayatını sürdürmektedir. Kız arkadaşı Vanessa’yla mutlu bir ilişki sürdüren Deadpool’un düzeni, gelecekten gelen Cable’ın ortaya çıkışıyla sarsılır. Cable gelecekte tehdit oluşturacak bir çocuğun peşindedir. Deadpool, Cable’ı durdurabilmek için süper güçlere sahip bir ekibi toplar ve bu aykırı karakterlerden oluşan X-Force ekibi, Deadpool’la birlikte maceraya atılır…

Deadpool 2 (2018) (Deadpool 2) | tt5463162 Filmi Imdb'den 490,000 kişi tarafından oylandı ve 7,7 puan aldı. Bu film için editör puanı %82 olarak belirlendi. İyi Seyirler!

Teknik Detaylar

Kod :
General
Unique ID                                : 306163395824063805296310723034992282087 (0xE654ECD934782C789C3FFB56F3FF09E7)
Complete name                            : /home/BroserBros/Desktop/5/Deadpool.2.2018.FHD.BluRay.x264.TR.ENG.Filmbol.mkv
Format                                   : Matroska
Format version                           : Version 4
File size                                : 4.47 GiB
Duration                                 : 1 h 59 min
Overall bit rate                         : 5 352 kb/s
Movie name                               : Deadpool 2 - 2018 | Filmbol.org
Encoded date                             : UTC 2021-03-29 13:56:40
Writing application                      : mkvmerge v53.0.0 ('Fool's Gold') 64-bit
Writing library                          : libebml v1.4.1 + libmatroska v1.6.2

Video
ID                                       : 1
Format                                   : AVC
Format/Info                              : Advanced Video Codec
Format profile                           : [email protected]
Format settings                          : CABAC / 5 Ref Frames
Format settings, CABAC                   : Yes
Format settings, Reference frames        : 5 frames
Codec ID                                 : V_MPEG4/ISO/AVC
Duration                                 : 1 h 59 min
Bit rate                                 : 4 508 kb/s
Width                                    : 1 920 pixels
Height                                   : 804 pixels
Display aspect ratio                     : 2.40:1
Frame rate mode                          : Constant
Frame rate                               : 23.976 (24000/1001) FPS
Color space                              : YUV
Chroma subsampling                       : 4:2:0
Bit depth                                : 8 bits
Scan type                                : Progressive
Bits/(Pixel*Frame)                       : 0.122
Stream size                              : 3.76 GiB (84%)
Title                                    : FHD - Filmbol.org
Language                                 : English
Default                                  : Yes
Forced                                   : No
Color range                              : Limited
Color primaries                          : BT.709
Transfer characteristics                 : BT.709
Matrix coefficients                      : BT.709

Audio #1
ID                                       : 2
Format                                   : AC-3
Format/Info                              : Audio Coding 3
Commercial name                          : Dolby Digital
Codec ID                                 : A_AC3
Duration                                 : 1 h 59 min
Bit rate mode                            : Constant
Bit rate                                 : 448 kb/s
Channel(s)                               : 6 channels
Channel layout                           : L R C LFE Ls Rs
Sampling rate                            : 48.0 kHz
Frame rate                               : 31.250 FPS (1536 SPF)
Compression mode                         : Lossy
Delay relative to video                  : -19 ms
Stream size                              : 382 MiB (8%)
Title                                    : Türkçe - Filmbol.org
Language                                 : Turkish
Service kind                             : Complete Main
Default                                  : Yes
Forced                                   : No

Audio #2
ID                                       : 3
Format                                   : AC-3
Format/Info                              : Audio Coding 3
Commercial name                          : Dolby Digital
Codec ID                                 : A_AC3
Duration                                 : 1 h 59 min
Bit rate mode                            : Constant
Bit rate                                 : 384 kb/s
Channel(s)                               : 6 channels
Channel layout                           : L R C LFE Ls Rs
Sampling rate                            : 48.0 kHz
Frame rate                               : 31.250 FPS (1536 SPF)
Compression mode                         : Lossy
Delay relative to video                  : -43 ms
Stream size                              : 328 MiB (7%)
Title                                    : Orjinal Dil - Filmbol.org
Language                                 : English
Service kind                             : Complete Main
Default                                  : No
Forced                                   : No

Text
ID                                       : 4
Format                                   : PGS
Muxing mode                              : zlib
Codec ID                                 : S_HDMV/PGS
Codec ID/Info                            : Picture based subtitle format used on BDs/HD-DVDs
Duration                                 : 1 h 56 min
Bit rate                                 : 38.1 kb/s
Count of elements                        : 3302
Stream size                              : 31.9 MiB (1%)
Title                                    : Türkçe - Filmbol.org
Language                                 : Turkish
Default                                  : No
Forced                                   : No

Film Detayları


 Deadpool 2

 Deadpool 2

 Deadpool 2


Film Fragmanı


Film İndir



Zip Şifresi: filmbol.org Aşağıdaki butona tıklayarak kopyalabilirsiniz.





Filmbol Cloud

Bunun için üzgünüz ancak, bu linke sadece premium üyeler erişebilir.




WWW
Şuan Offine!
Şuan Offine!
mkh42 Yeni Üye
*
Üye
  • Konular0
  • Mesajlar20
  • Rep puanı 0
Teşekkürler
Şuan Offine!
Şuan Offine!
by4444 Yeni Üye
*
Üye
  • Konular0
  • Mesajlar3
  • Rep puanı 0
tşklerrr


Hızlı Menü: