Filmbol Forum Film İndir BRRip XviD v Hayatımın Kampı (A Week Away) - 2021 - TR - BRRip XviD | tt11388278
Mega linklerinin şikayet edilmemesi için global erişime kapatıp sadece yorum yapanlara açıyoruz. Bu linkleri gizleme işlemini mecburen yapıyoruz ve yorum yapmanızın siteye değil size faydası vardır. Teşekürler yazmayı çok görüp, Random/Spam mesajlar atarak Mega linklerini açmaya çalışan kullanıcılara önce süresiz ban, devam ederse IP ban atacağız.
Filmbol'da moderatör olmak ister misiniz? Bizimle iletişime geçmek için tıklayın!
Hayatımın Kampı (A Week Away) - 2021 - TR - BRRip XviD | tt11388278
TheSteeL
Hayatımın Kampı (A Week Away) - 2021 - TR - BRRip XviD | tt11388278
0
40
  • Derecelendirme: 0/5 - 0 oy
  • 1
  • 2
  • 3
  • 4
  • 5
Konuyu Okuyanlar:1 Ziyaretçi
Şuan Online!
Filmin Yayınlanma Tarihi: 2021 
WWW
Şuan Online!
TheSteeL Süper Moderatör
*****
Süper Moderatör



 Hayatımın Kampı



Will Hawkins için işler pek yolunda gitmemektedir. Hayatı biraz sorunlu ve bu yüzden kanunlara karşı hareketler sergilemektedir. Genç yaşta olması onu hapisten kurtardı fakat yaptığı kanun dışı hareketler bedelsiz kalamaz. Önüne iki seçenek sunulur; ya ıslah evine gidecek ve burada bir müddet kalacak, yada hristiyan yaz kampına gidip burada ıslah olacaktır. En azından dışarıda olurum diyen Will, yaz kampını seçer. Başlarda burada kendine uygun bir şeyler bulamaz fakat zamanla tanıştığı bir kız, onu içine çeker ve Will'i sorunlu hayattan kurtarmaya başlar...

Hayatımın Kampı (2021) (A Week Away) | tt11388278 Filmi Imdb'den 1100 kişi tarafından oylandı ve 5,6 puan aldı. Bu film için editör puanı %60 olarak belirlendi. İyi Seyirler!

Teknik Detaylar

Kod :
General
Unique ID                                : 322133178095448253486780690373173998294 (0xF25897E795E6717682E72905389272D6)
Complete name                            : /home/TheSteel/Desktop/2/Hayatımın.Kampı.2021.HDRip.XViD.TR.Filmbol.avi
Format                                   : Matroska
Format version                           : Version 4
File size                                : 1.15 GiB
Duration                                 : 1 h 37 min
Overall bit rate                         : 1 679 kb/s
Movie name                               : A Week Away - Hayatımın Kampı - 2021 | Filmbol.org
Encoded date                             : UTC 2021-03-29 17:18:53
Writing application                      : mkvmerge v31.0.0 ('Dolores In A Shoestand') 64-bit
Writing library                          : libebml v1.3.6 + libmatroska v1.4.9
FileExtension_Invalid                    : mkv mk3d mka mks

Video
ID                                       : 1
Format                                   : MPEG-4 Visual
Format profile                           : [email protected]
Format settings, BVOP                    : No
Format settings, QPel                    : No
Format settings, GMC                     : No warppoints
Format settings, Matrix                  : Default (H.263)
Codec ID                                 : V_MS/VFW/FOURCC / XVID
Codec ID/Hint                            : XviD
Duration                                 : 1 h 37 min
Bit rate                                 : 1 549 kb/s
Width                                    : 720 pixels
Height                                   : 300 pixels
Display aspect ratio                     : 2.40:1
Frame rate mode                          : Constant
Frame rate                               : 23.976 FPS
Color space                              : YUV
Chroma subsampling                       : 4:2:0
Bit depth                                : 8 bits
Scan type                                : Progressive
Compression mode                         : Lossy
Bits/(Pixel*Frame)                       : 0.299
Stream size                              : 1.06 GiB (92%)
Title                                    : A Week Away - Hayatımın Kampı - 2021 | Filmbol.org
Writing library                          : Lavc58.35.100
Default                                  : Yes
Forced                                   : No

Audio
ID                                       : 2
Format                                   : MPEG Audio
Format version                           : Version 1
Format profile                           : Layer 3
Format settings                          : Joint stereo / MS Stereo
Codec ID                                 : A_MPEG/L3
Codec ID/Hint                            : MP3
Duration                                 : 1 h 37 min
Bit rate mode                            : Constant
Bit rate                                 : 128 kb/s
Channel(s)                               : 2 channels
Sampling rate                            : 48.0 kHz
Frame rate                               : 41.667 FPS (1152 SPF)
Compression mode                         : Lossy
Stream size                              : 89.6 MiB (8%)
Title                                    : A Week Away - Hayatımın Kampı - 2021 | Filmbol.org
Default                                  : Yes
Forced                                   : No

Film Detayları


 Hayatımın Kampı

 Hayatımın Kampı

 Hayatımın Kampı


Film Fragmanı


Film Detayları


Uptobox ile indir

1Fichier ile indir

1Fichier'den İndiremiyor musun? Tıklayın!


Mega linki şuan da gizli. Kullanıma açmak için konuya yorum yapın ve ardından sayfayı yenileyin.

Mega


Bunun için üzgünüz ancak, bu linke sadece premium üyeler erişebilir.

Filmbol Cloud







Konu ile Alakalı Benzer Konular
Konular Yazar Yorumlar Okunma Son Yorum
Filmin Yayınlanma Tarihi: 2021
Yıldırım Gücü (Thunder Force) - 2021 - TR - BRRip XviD | tt10121392 TheSteeL 0 7 6 saat önce
Son Yorum: TheSteeL
Filmin Yayınlanma Tarihi: 2019
47 Metre Derinde: Kafes (47 Meters Down: Uncaged) - 2019 - TR - BRRip XviD BroserBros 2 99 8 saat önce
Son Yorum: ömerk
Filmin Yayınlanma Tarihi: 2020
Kadaver (Cadaver) - 2020 - TR - BRRip XviD BroserBros 1 78 8 saat önce
Son Yorum: ömerk
Filmin Yayınlanma Tarihi: 2006
Arabalar (Cars) - 2006 - TR - BRRip XviD BroserBros 4 352 , Saat: 02:36
Son Yorum: paboo
Filmin Yayınlanma Tarihi: 2020
Dipte (Breaking Surface) - 2020 - TR - BRRip XviD | tt10081762 TheSteeL 3 68 , Saat: 02:15
Son Yorum: TheSteeL

Hızlı Menü: