Filmbol Forum Film İndir BRRip XviD v Hayatımın Kampı (A Week Away) - 2021 - TR - BRRip XviD | tt11388278
Bildirimi Kapat
Server kaynaklı problemden dolayı ciddi bir sorun yaşadık. Şuanda forum ve portal aktif halde ancak bazı problemler hala devam ediyor. Problem gördüğünüz yerleri bize bildirmeniz çok önemli. Teşekkürler.

Bildirimi Kapat
Merhaba , site giderlerini bir nebze olsun karşılamak adına link kısaltma servisleri kullanmaya başladık. İndirme linkleri sizi ouo.io adresinde yönlendirecek, 3 saniye geçtikten sonra Get Link butonuna tıklayarak linke ulaşacaksınız. Premium üyeler bu durumdan etkilenmeyecektir.


Premium Üyelik Al

Hayatımın Kampı (A Week Away) - 2021 - TR - BRRip XviD | tt11388278
TheSteeL
Hayatımın Kampı (A Week Away) - 2021 - TR - BRRip XviD | tt11388278
0
127
  • Derecelendirme: 0/5 - 0 oy
  • 1
  • 2
  • 3
  • 4
  • 5
Konuyu Okuyanlar:1 Ziyaretçi
Şuan Online!
Filmin Yayınlanma Tarihi: 2021 
Şuan Online!
TheSteeL Chief Executive Officer
******
CEO


 Hayatımın Kampı



Will Hawkins için işler pek yolunda gitmemektedir. Hayatı biraz sorunlu ve bu yüzden kanunlara karşı hareketler sergilemektedir. Genç yaşta olması onu hapisten kurtardı fakat yaptığı kanun dışı hareketler bedelsiz kalamaz. Önüne iki seçenek sunulur; ya ıslah evine gidecek ve burada bir müddet kalacak, yada hristiyan yaz kampına gidip burada ıslah olacaktır. En azından dışarıda olurum diyen Will, yaz kampını seçer. Başlarda burada kendine uygun bir şeyler bulamaz fakat zamanla tanıştığı bir kız, onu içine çeker ve Will'i sorunlu hayattan kurtarmaya başlar...

Hayatımın Kampı (2021) (A Week Away) | tt11388278 Filmi Imdb'den 1100 kişi tarafından oylandı ve 5,6 puan aldı. Bu film için editör puanı %60 olarak belirlendi. İyi Seyirler!

Teknik Detaylar

Kod :
General
Unique ID                                : 322133178095448253486780690373173998294 (0xF25897E795E6717682E72905389272D6)
Complete name                            : /home/TheSteel/Desktop/2/Hayatımın.Kampı.2021.HDRip.XViD.TR.Filmbol.avi
Format                                   : Matroska
Format version                           : Version 4
File size                                : 1.15 GiB
Duration                                 : 1 h 37 min
Overall bit rate                         : 1 679 kb/s
Movie name                               : A Week Away - Hayatımın Kampı - 2021 | Filmbol.org
Encoded date                             : UTC 2021-03-29 17:18:53
Writing application                      : mkvmerge v31.0.0 ('Dolores In A Shoestand') 64-bit
Writing library                          : libebml v1.3.6 + libmatroska v1.4.9
FileExtension_Invalid                    : mkv mk3d mka mks

Video
ID                                       : 1
Format                                   : MPEG-4 Visual
Format profile                           : [email protected]
Format settings, BVOP                    : No
Format settings, QPel                    : No
Format settings, GMC                     : No warppoints
Format settings, Matrix                  : Default (H.263)
Codec ID                                 : V_MS/VFW/FOURCC / XVID
Codec ID/Hint                            : XviD
Duration                                 : 1 h 37 min
Bit rate                                 : 1 549 kb/s
Width                                    : 720 pixels
Height                                   : 300 pixels
Display aspect ratio                     : 2.40:1
Frame rate mode                          : Constant
Frame rate                               : 23.976 FPS
Color space                              : YUV
Chroma subsampling                       : 4:2:0
Bit depth                                : 8 bits
Scan type                                : Progressive
Compression mode                         : Lossy
Bits/(Pixel*Frame)                       : 0.299
Stream size                              : 1.06 GiB (92%)
Title                                    : A Week Away - Hayatımın Kampı - 2021 | Filmbol.org
Writing library                          : Lavc58.35.100
Default                                  : Yes
Forced                                   : No

Audio
ID                                       : 2
Format                                   : MPEG Audio
Format version                           : Version 1
Format profile                           : Layer 3
Format settings                          : Joint stereo / MS Stereo
Codec ID                                 : A_MPEG/L3
Codec ID/Hint                            : MP3
Duration                                 : 1 h 37 min
Bit rate mode                            : Constant
Bit rate                                 : 128 kb/s
Channel(s)                               : 2 channels
Sampling rate                            : 48.0 kHz
Frame rate                               : 41.667 FPS (1152 SPF)
Compression mode                         : Lossy
Stream size                              : 89.6 MiB (8%)
Title                                    : A Week Away - Hayatımın Kampı - 2021 | Filmbol.org
Default                                  : Yes
Forced                                   : No

Film Detayları


 Hayatımın Kampı

 Hayatımın Kampı

 Hayatımın Kampı


Film Fragmanı


Film İndir



Zip Şifresi: filmbol.org Aşağıdaki butona tıklayarak kopyalabilirsiniz.



Uptobox ile indir

1Fichier ile indir

1Fichier'den İndiremiyor musun? Tıklayın!





Filmbol Cloud

Bunun için üzgünüz ancak, bu linke sadece premium üyeler erişebilir.




WWW


Hızlı Menü: