Filmbol Forum Film İndir BRRip XviD v Dipte (Breaking Surface) - 2020 - TR - BRRip XviD | tt10081762
Bildirimi Kapat
Server kaynaklı problemden dolayı ciddi bir sorun yaşadık. Şuanda forum ve portal aktif halde ancak bazı problemler hala devam ediyor. Problem gördüğünüz yerleri bize bildirmeniz çok önemli. Teşekkürler.

Bildirimi Kapat
Merhaba , site giderlerini bir nebze olsun karşılamak adına link kısaltma servisleri kullanmaya başladık. İndirme linkleri sizi ouo.io adresinde yönlendirecek, 3 saniye geçtikten sonra Get Link butonuna tıklayarak linke ulaşacaksınız. Premium üyeler bu durumdan etkilenmeyecektir.


Premium Üyelik Al

Dipte (Breaking Surface) - 2020 - TR - BRRip XviD | tt10081762
TheSteeL
Dipte (Breaking Surface) - 2020 - TR - BRRip XviD | tt10081762
3
166
  • Derecelendirme: 0/5 - 0 oy
  • 1
  • 2
  • 3
  • 4
  • 5
Konuyu Okuyanlar:1 Ziyaretçi
Şuan Online!
Filmin Yayınlanma Tarihi: 2020 
Şuan Online!
TheSteeL Chief Executive Officer
******
CEO


 Dipte



Ida ve Tuva iyi geçinen üvey kardeşlerdir. Tatillerini genelde birlikte yapan kardeşler, genellikle Norveç'i tercih eder. Yine tatil zamanlarında kardeşlerinin birinin başına suya dalış anında inanılmaz bir kaza meydana gelir. Bir kaya Tuva'nın üzerine gelir ve onu deniz'in 30 metre aşağısına götürür. Bu durum karşısında Ida panik olsa da, sakin kalmalı ve kardeşini kurtarmak için zamanla yarışmalıdır...

Dipte (2020) (Breaking Surface) | tt10081762 Filmi Imdb'den 2800 kişi tarafından oylandı ve 6,2 puan aldı. Bu film için editör puanı %60 olarak belirlendi. İyi Seyirler!

Teknik Detaylar

Kod :
General
Unique ID                                : 288392703965424256494837688394468683842 (0xD8F66A1826179C1F30A4E472A3BDF042)
Complete name                            : /home/TheSteel/Desktop/1/Dipte.2020.BRRip.XViD.TR.Filmbol.avi
Format                                   : Matroska
Format version                           : Version 4
File size                                : 1.02 GiB
Duration                                 : 1 h 21 min
Overall bit rate                         : 1 801 kb/s
Movie name                               : Breaking Surface - Dipte - 2020 | Filmbol.org
Encoded date                             : UTC 2021-03-27 16:06:35
Writing application                      : mkvmerge v31.0.0 ('Dolores In A Shoestand') 64-bit
Writing library                          : libebml v1.3.6 + libmatroska v1.4.9
FileExtension_Invalid                    : mkv mk3d mka mks

Video
ID                                       : 1
Format                                   : MPEG-4 Visual
Format profile                           : Advanced [email protected]
Format settings                          : BVOP2
Format settings, BVOP                    : 2
Format settings, QPel                    : No
Format settings, GMC                     : No warppoints
Format settings, Matrix                  : Default (MPEG)
Muxing mode                              : Packed bitstream
Codec ID                                 : V_MS/VFW/FOURCC / XVID
Codec ID/Hint                            : XviD
Duration                                 : 1 h 21 min
Bit rate                                 : 1 671 kb/s
Width                                    : 720 pixels
Height                                   : 304 pixels
Display aspect ratio                     : 2.35:1
Frame rate mode                          : Constant
Frame rate                               : 24.000 FPS
Color space                              : YUV
Chroma subsampling                       : 4:2:0
Bit depth                                : 8 bits
Scan type                                : Progressive
Compression mode                         : Lossy
Bits/(Pixel*Frame)                       : 0.318
Stream size                              : 972 MiB (93%)
Title                                    : Breaking Surface - Dipte - 2020 | Filmbol.org
Writing library                          : XviD 64
Default                                  : Yes
Forced                                   : No

Audio
ID                                       : 2
Format                                   : MPEG Audio
Format version                           : Version 1
Format profile                           : Layer 3
Format settings                          : Joint stereo / MS Stereo
Codec ID                                 : A_MPEG/L3
Codec ID/Hint                            : MP3
Duration                                 : 1 h 21 min
Bit rate mode                            : Constant
Bit rate                                 : 128 kb/s
Channel(s)                               : 2 channels
Sampling rate                            : 48.0 kHz
Frame rate                               : 41.667 FPS (1152 SPF)
Compression mode                         : Lossy
Stream size                              : 74.4 MiB (7%)
Title                                    : Breaking Surface - Dipte - 2020 | Filmbol.org
Default                                  : Yes
Forced                                   : No

Film Detayları


 Dipte

 Dipte

 Dipte


Film Fragmanı


Film İndir



Zip Şifresi: filmbol.org Aşağıdaki butona tıklayarak kopyalabilirsiniz.



Uptobox ile indir

1Fichier ile indir

1Fichier'den İndiremiyor musun? Tıklayın!





Filmbol Cloud

Bunun için üzgünüz ancak, bu linke sadece premium üyeler erişebilir.




WWW
Şuan Offine!
Şuan Offine!
Furkan61 Cezalı Üye
  • Konular0
  • Mesajlar329
güzel
Şuan Online!
Şuan Online!
ömerk Uzman Üye
**
Uzman Üye
  • Konular0
  • Mesajlar14
  • Rep puanı 0
teşekkürler
Şuan Online!
Şuan Online!
TheSteeL Chief Executive Officer
******
CEO
(11-04-2021, Saat: 02:09)ömerk Adlı Kullanıcıdan Alıntı: teşekkürler
iyi Seyirler


Hızlı Menü: