Filmbol Forum Film İndir FHD - FULL HD v Bayan Devrim (Misbehaviour) - 2020 - TR+ORG - FHD - x264 | tt9148706
Bildirimi Kapat
Server kaynaklı problemden dolayı ciddi bir sorun yaşadık. Şuanda forum ve portal aktif halde ancak bazı problemler hala devam ediyor. Problem gördüğünüz yerleri bize bildirmeniz çok önemli. Teşekkürler.

Bildirimi Kapat
Merhaba , site giderlerini bir nebze olsun karşılamak adına link kısaltma servisleri kullanmaya başladık. İndirme linkleri sizi ouo.io adresinde yönlendirecek, 3 saniye geçtikten sonra Get Link butonuna tıklayarak linke ulaşacaksınız. Premium üyeler bu durumdan etkilenmeyecektir.


Premium Üyelik Al

Bayan Devrim (Misbehaviour) - 2020 - TR+ORG - FHD - x264 | tt9148706
TheSteeL
Bayan Devrim (Misbehaviour) - 2020 - TR+ORG - FHD - x264 | tt9148706
0
105
  • Derecelendirme: 0/5 - 0 oy
  • 1
  • 2
  • 3
  • 4
  • 5
Konuyu Okuyanlar:2 Ziyaretçi
Şuan Online!
Filmin Yayınlanma Tarihi: 2020 
Şuan Online!
TheSteeL Chief Executive Officer
******
CEO


 Bayan Devrim



Dünyanın en gözde güzellik yarışması Miss World'de 1970 yılında çok ilginç bir şey yaşanır. Programın ortalarında yayın aniden kesilir ve araya kadın özgürlüğünü ve ırkçılığın doğru olmadığını savunan bir grup, yayını durdurur ve mesajlarını verirler. Bunun program dahilinde mi yoksa gerçekten de bir eylem mi olduğunu anlamayan izleyiciler, program sonuna doğru güzellik yarışmasında ilk defa siyahi bir kadının Miss World seçilmesi ile şoka uğrar...

Bayan Devrim (2020) (Misbehaviour) | tt9148706 Filmi Imdb'den 6000 kişi tarafından oylandı ve 6,2 puan aldı. Bu film için editör puanı %70 olarak belirlendi. İyi Seyirler!

Teknik Detaylar

Kod :
General
Unique ID                                : 78343166821116537791090464229920449479 (0x3AF05857F133362E33F1441390E5A3C7)
Complete name                            : /home/TheSteel/Desktop/2/Bayan.Devrim.2020.FHD.BluRay.x264.TR.ENG.Filmbol.mkv
Format                                   : Matroska
Format version                           : Version 4
File size                                : 7.23 GiB
Duration                                 : 1 h 46 min
Overall bit rate                         : 9 744 kb/s
Movie name                               : Misbehaviour - Bayan Devrim - 2020 | Filmbol.org
Encoded date                             : UTC 2021-03-24 11:04:54
Writing application                      : mkvmerge v31.0.0 ('Dolores In A Shoestand') 64-bit
Writing library                          : libebml v1.3.6 + libmatroska v1.4.9

Video
ID                                       : 1
Format                                   : AVC
Format/Info                              : Advanced Video Codec
Format profile                           : [email protected]
Format settings                          : CABAC / 2 Ref Frames
Format settings, CABAC                   : Yes
Format settings, Reference frames        : 2 frames
Codec ID                                 : V_MPEG4/ISO/AVC
Duration                                 : 1 h 46 min
Bit rate                                 : 8 910 kb/s
Width                                    : 1 920 pixels
Height                                   : 804 pixels
Display aspect ratio                     : 2.40:1
Frame rate mode                          : Constant
Frame rate                               : 24.000 FPS
Color space                              : YUV
Chroma subsampling                       : 4:2:0
Bit depth                                : 8 bits
Scan type                                : Progressive
Bits/(Pixel*Frame)                       : 0.240
Stream size                              : 6.61 GiB (91%)
Title                                    : Misbehaviour - Bayan Devrim - 2020 | Filmbol.org
Language                                 : English
Default                                  : Yes
Forced                                   : No

Audio #1
ID                                       : 2
Format                                   : AC-3
Format/Info                              : Audio Coding 3
Commercial name                          : Dolby Digital
Codec ID                                 : A_AC3
Duration                                 : 1 h 46 min
Bit rate mode                            : Constant
Bit rate                                 : 192 kb/s
Channel(s)                               : 2 channels
Channel layout                           : L R
Sampling rate                            : 48.0 kHz
Frame rate                               : 31.250 FPS (1536 SPF)
Compression mode                         : Lossy
Stream size                              : 146 MiB (2%)
Title                                    : Misbehaviour - Bayan Devrim - 2020 | Filmbol.org
Language                                 : Turkish
Service kind                             : Complete Main
Default                                  : Yes
Forced                                   : No

Audio #2
ID                                       : 3
Format                                   : AC-3
Format/Info                              : Audio Coding 3
Commercial name                          : Dolby Digital
Codec ID                                 : A_AC3
Duration                                 : 1 h 46 min
Bit rate mode                            : Constant
Bit rate                                 : 640 kb/s
Channel(s)                               : 6 channels
Channel layout                           : L R C LFE Ls Rs
Sampling rate                            : 48.0 kHz
Frame rate                               : 31.250 FPS (1536 SPF)
Compression mode                         : Lossy
Stream size                              : 486 MiB (7%)
Title                                    : Misbehaviour - Bayan Devrim - 2020 | Filmbol.org
Language                                 : English
Service kind                             : Complete Main
Default                                  : No
Forced                                   : No

Film Detayları


 Bayan Devrim

 Bayan Devrim

 Bayan Devrim


Film Fragmanı


Film İndir



Zip Şifresi: filmbol.org Aşağıdaki butona tıklayarak kopyalabilirsiniz.





Filmbol Cloud

Bunun için üzgünüz ancak, bu linke sadece premium üyeler erişebilir.




WWW


Hızlı Menü: