Filmbol Forum Film İndir BRRip XviD v Bayan Devrim (Misbehaviour) - 2020 - TR - BRRip XviD | tt9148706
Bildirimi Kapat
Üyelik alımları açıldı.


Bildirimi Kapat
Mega linklerinin şikayet edilmemesi için global erişime kapatıp sadece yorum yapanlara açıyoruz. Bu linkleri gizleme işlemini mecburen yapıyoruz ve yorum yapmanızın siteye değil size faydası vardır. Teşekkürler yazmayı çok görüp, Random/Spam/Anlamsız mesajlar atarak forumu kirletip Mega linklerini açmaya çalışan kullanıcılara süresiz ban atacağız.

Premium Üyelik Al

Bayan Devrim (Misbehaviour) - 2020 - TR - BRRip XviD | tt9148706
TheSteeL
Bayan Devrim (Misbehaviour) - 2020 - TR - BRRip XviD | tt9148706
2
187
  • Derecelendirme: 0/5 - 0 oy
  • 1
  • 2
  • 3
  • 4
  • 5
Konuyu Okuyanlar:1 Ziyaretçi
Şuan Online!
Filmin Yayınlanma Tarihi: 2020 
WWW
Şuan Online!
TheSteeL Süper Moderatör
*****
Süper Moderatör



 Bayan Devrim



Dünyanın en gözde güzellik yarışması Miss World'de 1970 yılında çok ilginç bir şey yaşanır. Programın ortalarında yayın aniden kesilir ve araya kadın özgürlüğünü ve ırkçılığın doğru olmadığını savunan bir grup, yayını durdurur ve mesajlarını verirler. Bunun program dahilinde mi yoksa gerçekten de bir eylem mi olduğunu anlamayan izleyiciler, program sonuna doğru güzellik yarışmasında ilk defa siyahi bir kadının Miss World seçilmesi ile şoka uğrar...

Bayan Devrim (2020) (Misbehaviour) | tt9148706 Filmi Imdb'den 6000 kişi tarafından oylandı ve 6,2 puan aldı. Bu film için editör puanı %70 olarak belirlendi. İyi Seyirler!

Teknik Detaylar

Kod :
General
Unique ID                                : 334427194150365422658655354530078501148 (0xFB9855B1BA49957CA4F055FB470DA91C)
Complete name                            : /home/TheSteel/Desktop/2/Bayan.Devrim.2020.BDRip.XViD.TR.Filmbol.avi
Format                                   : Matroska
Format version                           : Version 4
File size                                : 1.22 GiB
Duration                                 : 1 h 46 min
Overall bit rate                         : 1 640 kb/s
Movie name                               : Misbehaviour - Bayan Devrim - 2020 | Filmbol.org
Encoded date                             : UTC 2021-03-24 11:07:06
Writing application                      : mkvmerge v31.0.0 ('Dolores In A Shoestand') 64-bit
Writing library                          : libebml v1.3.6 + libmatroska v1.4.9
FileExtension_Invalid                    : mkv mk3d mka mks

Video
ID                                       : 1
Format                                   : MPEG-4 Visual
Format profile                           : Advanced [email protected]
Format settings                          : BVOP2 / Custom Matrix
Format settings, BVOP                    : 2
Format settings, QPel                    : No
Format settings, GMC                     : No warppoints
Format settings, Matrix                  : Custom
Codec ID                                 : V_MS/VFW/FOURCC / XVID
Codec ID/Hint                            : XviD
Duration                                 : 1 h 46 min
Bit rate                                 : 1 511 kb/s
Width                                    : 720 pixels
Height                                   : 304 pixels
Display aspect ratio                     : 2.35:1
Frame rate mode                          : Constant
Frame rate                               : 24.000 FPS
Color space                              : YUV
Chroma subsampling                       : 4:2:0
Bit depth                                : 8 bits
Scan type                                : Progressive
Compression mode                         : Lossy
Bits/(Pixel*Frame)                       : 0.288
Stream size                              : 1.12 GiB (92%)
Title                                    : Misbehaviour - Bayan Devrim - 2020 | Filmbol.org
Writing library                          : XviD 73
Default                                  : Yes
Forced                                   : No

Audio
ID                                       : 2
Format                                   : MPEG Audio
Format version                           : Version 1
Format profile                           : Layer 3
Format settings                          : Joint stereo / MS Stereo
Codec ID                                 : A_MPEG/L3
Codec ID/Hint                            : MP3
Duration                                 : 1 h 46 min
Bit rate mode                            : Constant
Bit rate                                 : 128 kb/s
Channel(s)                               : 2 channels
Sampling rate                            : 48.0 kHz
Frame rate                               : 41.667 FPS (1152 SPF)
Compression mode                         : Lossy
Stream size                              : 97.3 MiB (8%)
Title                                    : Misbehaviour - Bayan Devrim - 2020 | Filmbol.org
Writing library                          : LAME3.99.5
Default                                  : Yes
Forced                                   : No

Film Detayları


 Bayan Devrim

 Bayan Devrim

 Bayan Devrim


Film Fragmanı


Film Detayları


Uptobox ile indir

1Fichier ile indir

1Fichier'den İndiremiyor musun? Tıklayın!


Mega linki şuan da gizli. Kullanıma açmak için konuya yorum yapın ve ardından sayfayı yenileyin.

Mega


Bunun için üzgünüz ancak, bu linke sadece premium üyeler erişebilir.

Filmbol Cloud





Şuan Offine!
Şuan Offine!
tepe38 Yeni Üye
*
Üye

  • Konular0
  • Mesajlar5
  • Rep puanı 0
teşekkürlerr Heart
Şuan Online!
Şuan Online!
TheSteeL Süper Moderatör
*****
Süper Moderatör

(29-03-2021, Saat: 11:35)tepe38 Adlı Kullanıcıdan Alıntı: teşekkürlerr Heart
İyi Seyirler


Hızlı Menü: