Filmbol Forum Film İndir BRRip XviD v Yarımada (Train to Busan 2) - 2020 - TR - BRRip XviD | tt8850222
Bildirimi Kapat
Üyelik alımları açıldı.


Bildirimi Kapat
Mega linklerinin şikayet edilmemesi için global erişime kapatıp sadece yorum yapanlara açıyoruz. Bu linkleri gizleme işlemini mecburen yapıyoruz ve yorum yapmanızın siteye değil size faydası vardır. Teşekkürler yazmayı çok görüp, Random/Spam/Anlamsız mesajlar atarak forumu kirletip Mega linklerini açmaya çalışan kullanıcılara süresiz ban atacağız.

Premium Üyelik Al

Yarımada (Train to Busan 2) - 2020 - TR - BRRip XviD | tt8850222
TheSteeL
Yarımada (Train to Busan 2) - 2020 - TR - BRRip XviD | tt8850222
1
170
  • Derecelendirme: 0/5 - 0 oy
  • 1
  • 2
  • 3
  • 4
  • 5
Konuyu Okuyanlar:1 Ziyaretçi
Şuan Online!
Filmin Yayınlanma Tarihi: 2020 
WWW
Şuan Online!
TheSteeL Süper Moderatör
*****
Süper Moderatör



 Yarımada



Yarımada filmi, insanların neredeyse yok olmak üzere olduğu bir döneme odaklanıyor. Zombi enfeksiyonun dünyayı sarmış ve enfeksiyonu kapan kişiler bilincini tamamı ile yitirerek insanlıktan çıkmaktaydı. Üstelik enfeksiyon çok hızlı yayılmış, insanlık zor durumda kalmıştır. Ancak hâlâ umut vardır ve bir asker merkez üssüne para götürmek üzere gönderilir. İnsanlığın hâlâ bir şansı vardır. Asker yola çıktığında karşısına birileri çıkar. Bu küçük adada bir grup insan olağanüstü bir şekilde hayatta kalmayı başarmış ve kurtulmayı beklemektedir. Asker için şimdi bir karar verme zamanıdır...

Yarımada (2020) (Train to Busan 2) | tt8850222 Filmi Imdb'den 23000 kişi tarafından oylandı ve 5,5 puan aldı. Bu film için editör puanı %67 olarak belirlendi. İyi Seyirler!

Teknik Detaylar

Kod :
General
Unique ID                                : 126854959530208993163574556290586198071 (0x5F6F60634EF3CF8E7B4DD9BBF3274037)
Complete name                            : /home/TheSteel/Desktop/2/Yarımada.2020.BDRip.XViD.TR.Filmbol.avi
Format                                  : Matroska
Format version                          : Version 4
File size                                : 1.25 GiB
Duration                                : 1 h 55 min
Overall bit rate                        : 1 546 kb/s
Movie name                              : Train to Busan Presents Peninsula - Yarımada - 2020 | Filmbol.org
Encoded date                            : UTC 2021-03-20 15:48:58
Writing application                      : mkvmerge v31.0.0 ('Dolores In A Shoestand') 64-bit
Writing library                          : libebml v1.3.6 + libmatroska v1.4.9
FileExtension_Invalid                    : mkv mk3d mka mks

Video
ID                                      : 1
Format                                  : MPEG-4 Visual
Format profile                          : Advanced [email protected]
Format settings                          : BVOP1 / Custom Matrix
Format settings, BVOP                    : 1
Format settings, QPel                    : No
Format settings, GMC                    : No warppoints
Format settings, Matrix                  : Custom
Codec ID                                : V_MS/VFW/FOURCC / XVID
Codec ID/Hint                            : XviD
Duration                                : 1 h 55 min
Bit rate                                : 1 416 kb/s
Width                                    : 720 pixels
Height                                  : 304 pixels
Display aspect ratio                    : 2.35:1
Frame rate mode                          : Constant
Frame rate                              : 24.000 FPS
Color space                              : YUV
Chroma subsampling                      : 4:2:0
Bit depth                                : 8 bits
Scan type                                : Progressive
Compression mode                        : Lossy
Bits/(Pixel*Frame)                      : 0.270
Stream size                              : 1.15 GiB (92%)
Title                                    : Train to Busan Presents Peninsula - Yarımada - 2020 | Filmbol.org
Writing library                          : XviD 73
Default                                  : Yes
Forced                                  : No

Audio
ID                                      : 2
Format                                  : MPEG Audio
Format version                          : Version 1
Format profile                          : Layer 3
Format settings                          : Joint stereo
Codec ID                                : A_MPEG/L3
Codec ID/Hint                            : MP3
Duration                                : 1 h 55 min
Bit rate mode                            : Constant
Bit rate                                : 128 kb/s
Channel(s)                              : 2 channels
Sampling rate                            : 48.0 kHz
Frame rate                              : 41.667 FPS (1152 SPF)
Compression mode                        : Lossy
Stream size                              : 106 MiB (8%)
Title                                    : Train to Busan Presents Peninsula - Yarımada - 2020 | Filmbol.org
Default                                  : Yes
Forced                                  : No

Film Detayları


 Yarımada

 Yarımada

 Yarımada


Film Fragmanı


Film Detayları


Uptobox ile indir

1Fichier ile indir

1Fichier'den İndiremiyor musun? Tıklayın!


Mega linki şuan da gizli. Kullanıma açmak için konuya yorum yapın ve ardından sayfayı yenileyin.

Mega


Bunun için üzgünüz ancak, bu linke sadece premium üyeler erişebilir.

Filmbol Cloud





Şuan Offine!
Şuan Offine!
Furkan61 Cezalı Üye

  • Konular0
  • Mesajlar329
güzel


Hızlı Menü: