Filmbol Forum Film İndir BRRip XviD v Kubo ve Sihirli Telleri (Kubo and the Two Strings) - 2016 - TR - BRRip XviD | tt4302938
Mega linklerinin şikayet edilmemesi için global erişime kapatıp sadece yorum yapanlara açıyoruz. Bu linkleri gizleme işlemini mecburen yapıyoruz ve yorum yapmanızın siteye değil size faydası vardır. Teşekürler yazmayı çok görüp, Random/Spam mesajlar atarak Mega linklerini açmaya çalışan kullanıcılara önce süresiz ban, devam ederse IP ban atacağız.
Filmbol'da moderatör olmak ister misiniz? Bizimle iletişime geçmek için tıklayın!
Kubo ve Sihirli Telleri (Kubo and the Two Strings) - 2016 - TR - BRRip XviD | tt4302938
BroserBros
Kubo ve Sihirli Telleri (Kubo and the Two Strings) - 2016 - TR - BRRip XviD | tt4302938
3
1677
  • Derecelendirme: 0/5 - 0 oy
  • 1
  • 2
  • 3
  • 4
  • 5
Konuyu Okuyanlar:1 Ziyaretçi
Şuan Online!
Filmin Yayınlanma Tarihi: 2016 
WWW
Şuan Online!
BroserBros Kurucu Admin
*******
Admin



 Kubo ve Sihirli Telleri



Kubo, deniz kenarındaki köyünde sakin ve sessiz bir hayat sürmektedir. Fakat geçmişten gelen bir ruh, eski bir kan davasını yeniden alevlendirince hayatı alt üst olacaktır. Tanrılar, canavarlar gibi pek çok doğaüstü yaratık harekete geçince, Kubo hayatta kalmak için eski bir Samuray savaşçısı olan babasının zırhını bulmak zorundadır… Yönetmenliğini Travis Knight’ın üstlendiği animasyonun orijinal seslendirme kadrosunda Rooney Mara, Charlize Theron, Matthew McConaughey gibi ünlü isimler yer alıyor.

Kubo ve Sihirli Telleri (2016) (Kubo and the Two Strings) | tt4302938 Filmi Imdb'den 120,000 kişi tarafından oylandı ve 7,8 puan aldı. Bu film için editör puanı %80 olarak belirlendi. İyi Seyirler!

Teknik Detaylar

Kod :
General
Unique ID                                : 265785695246162103070805954291176678396 (0xC7F4768258D0B4418FA0D3F94881A3FC)
Complete name                            : /home/BroserBros/Desktop/1/Kubo.Ve.Sihirli.Telleri.2016.BRRip.XViD.TR.Filmbol.avi
Format                                   : Matroska
Format version                           : Version 4
File size                                : 1.16 GiB
Duration                                 : 1 h 41 min
Overall bit rate                         : 1 633 kb/s
Movie name                               : Kubo ve Sihirli Telleri - Kubo and The Two Strings - 2016 | Filmbol.org
Encoded date                             : UTC 2021-05-06 13:06:07
Writing application                      : mkvmerge v53.0.0 ('Fool's Gold') 64-bit
Writing library                          : libebml v1.4.1 + libmatroska v1.6.2
FileExtension_Invalid                    : mkv mk3d mka mks

Video
ID                                       : 1
Format                                   : MPEG-4 Visual
Format profile                           : Advanced [email protected]
Format settings                          : BVOP2
Format settings, BVOP                    : 2
Format settings, QPel                    : No
Format settings, GMC                     : No warppoints
Format settings, Matrix                  : Default (H.263)
Muxing mode                              : Packed bitstream
Codec ID                                 : V_MS/VFW/FOURCC / XVID
Codec ID/Hint                            : XviD
Duration                                 : 1 h 41 min
Bit rate                                 : 1 503 kb/s
Width                                    : 720 pixels
Height                                   : 304 pixels
Display aspect ratio                     : 2.35:1
Frame rate mode                          : Constant
Frame rate                               : 23.976 (23976/1000) FPS
Color space                              : YUV
Chroma subsampling                       : 4:2:0
Bit depth                                : 8 bits
Scan type                                : Progressive
Compression mode                         : Lossy
Bits/(Pixel*Frame)                       : 0.286
Stream size                              : 1.07 GiB (92%)
Title                                    : Kubo ve Sihirli Telleri - Kubo and The Two Strings - 2016 | Filmbol.org
Writing library                          : XviD 66
Default                                  : Yes
Forced                                   : No

Audio
ID                                       : 2
Format                                   : MPEG Audio
Format version                           : Version 1
Format profile                           : Layer 3
Format settings                          : Joint stereo
Codec ID                                 : A_MPEG/L3
Codec ID/Hint                            : MP3
Duration                                 : 1 h 41 min
Bit rate mode                            : Constant
Bit rate                                 : 128 kb/s
Channel(s)                               : 2 channels
Sampling rate                            : 48.0 kHz
Frame rate                               : 41.667 FPS (1152 SPF)
Compression mode                         : Lossy
Stream size                              : 93.0 MiB (8%)
Title                                    : Kubo ve Sihirli Telleri - Kubo and The Two Strings - 2016 | Filmbol.org
Default                                  : Yes
Forced                                   : No

Film Detayları


 Kubo ve Sihirli Telleri

 Kubo ve Sihirli Telleri

 Kubo ve Sihirli Telleri


Film Fragmanı


Film Detayları


Uptobox ile indir

1Fichier ile indir

1Fichier'den İndiremiyor musun? Tıklayın!


Mega linki şuan da gizli. Kullanıma açmak için konuya yorum yapın ve ardından sayfayı yenileyin.

Mega


Bunun için üzgünüz ancak, bu linke sadece premium üyeler erişebilir.

Filmbol Cloud





Şuan Online!
Şuan Online!
tenteci Uzman Üye
**
Uzman Üye

  • Konular0
  • Mesajlar17
  • Rep puanı 0
teşekkürler
Şuan Offine!
Şuan Offine!
abeleyth Yeni Üye
*
Üye

  • Konular0
  • Mesajlar5
  • Rep puanı 0
tesekkurler
Şuan Online!
Şuan Online!
BroserBros Kurucu Admin
*******
Admin

07.05.2021 Yönetici Notu:

Kırık linkler kontrol edildi, kaldırıldı ve yenilendi. Tüm linkler tamamen çalışır durumda.


Hızlı Menü: