Filmbol Forum Film İndir 720P v Baba Aranıyor (Se busca papá) - 2020 - TR+ORG - 720P | tt12721188
Mega linklerinin şikayet edilmemesi için global erişime kapatıp sadece yorum yapanlara açıyoruz. Bu linkleri gizleme işlemini mecburen yapıyoruz ve yorum yapmanızın siteye değil size faydası vardır. Teşekürler yazmayı çok görüp, Random/Spam mesajlar atarak Mega linklerini açmaya çalışan kullanıcılara önce süresiz ban, devam ederse IP ban atacağız.
Filmbol'da moderatör olmak ister misiniz? Bizimle iletişime geçmek için tıklayın!
Baba Aranıyor (Se busca papá) - 2020 - TR+ORG - 720P | tt12721188
TheSteeL
Baba Aranıyor (Se busca papá) - 2020 - TR+ORG - 720P | tt12721188
0
95
  • Derecelendirme: 0/5 - 0 oy
  • 1
  • 2
  • 3
  • 4
  • 5
Konuyu Okuyanlar:1 Ziyaretçi
Şuan Online!
Filmin Yayınlanma Tarihi: 2020 
WWW
Şuan Online!
TheSteeL Süper Moderatör
*****
Süper Moderatör




 Baba Aranıyor



Babası olmayan bir kız annesi ile sıradan bir hayat sürmektedir. Fakat annesi başarılı bir kadındır ve BMX yarışlarına mücadele etmeye hak kazanır. Fakat BMX yarışları kadını kocası olmadığı için dışlar. Bunu annesi kabullense de kız kabullenmez ve baba rolü yapacak birini bulma arayışına girer...

Baba Aranıyor (2020) (Se busca papá) | tt12721188 Filmi Imdb'den 900 kişi tarafından oylandı ve 5,7 puan aldı. Bu film için editör puanı %55 olarak belirlendi. İyi Seyirler!

Teknik Detaylar

Kod :
General
Unique ID                                : 319003391474744263331568630601443137706 (0xEFFDD182AD6C3F03A6C9994D4C1B58AA)
Complete name                            : /home/TheSteel/Desktop/5/Baba.Aranıyor.2020.720p.WEB-DL.x264.TR.ES.Filmbol.mkv
Format                                  : Matroska
Format version                          : Version 4
File size                                : 1.37 GiB
Duration                                : 1 h 43 min
Overall bit rate                        : 1 896 kb/s
Movie name                              : Se busca papá - Baba Aranıyor - 2020 | Filmbol.org
Encoded date                            : UTC 2021-02-26 16:10:41
Writing application                      : mkvmerge v31.0.0 ('Dolores In A Shoestand') 64-bit
Writing library                          : libebml v1.3.6 + libmatroska v1.4.9

Video
ID                                      : 1
Format                                  : AVC
Format/Info                              : Advanced Video Codec
Format profile                          : [email protected]
Format settings                          : CABAC / 2 Ref Frames
Format settings, CABAC                  : Yes
Format settings, Reference frames        : 2 frames
Codec ID                                : V_MPEG4/ISO/AVC
Duration                                : 1 h 43 min
Bit rate                                : 1 318 kb/s
Width                                    : 1 280 pixels
Height                                  : 720 pixels
Display aspect ratio                    : 16:9
Frame rate mode                          : Constant
Frame rate                              : 24.000 FPS
Color space                              : YUV
Chroma subsampling                      : 4:2:0
Bit depth                                : 8 bits
Scan type                                : Progressive
Bits/(Pixel*Frame)                      : 0.060
Stream size                              : 972 MiB (69%)
Title                                    : Se busca papá - Baba Aranıyor - 2020 | Filmbol.org
Default                                  : Yes
Forced                                  : No

Audio #1
ID                                      : 2
Format                                  : AC-3
Format/Info                              : Audio Coding 3
Commercial name                          : Dolby Digital
Codec ID                                : A_AC3
Duration                                : 1 h 43 min
Bit rate mode                            : Constant
Bit rate                                : 384 kb/s
Channel(s)                              : 6 channels
Channel layout                          : L R C LFE Ls Rs
Sampling rate                            : 48.0 kHz
Frame rate                              : 31.250 FPS (1536 SPF)
Compression mode                        : Lossy
Stream size                              : 283 MiB (20%)
Title                                    : Se busca papá - Baba Aranıyor - 2020 | Filmbol.org
Language                                : Turkish
Service kind                            : Complete Main
Default                                  : Yes
Forced                                  : No

Audio #2
ID                                      : 3
Format                                  : AC-3
Format/Info                              : Audio Coding 3
Commercial name                          : Dolby Digital
Codec ID                                : A_AC3
Duration                                : 1 h 43 min
Bit rate mode                            : Constant
Bit rate                                : 192 kb/s
Channel(s)                              : 2 channels
Channel layout                          : L R
Sampling rate                            : 48.0 kHz
Frame rate                              : 31.250 FPS (1536 SPF)
Compression mode                        : Lossy
Stream size                              : 142 MiB (10%)
Title                                    : Se busca papá - Baba Aranıyor - 2020 | Filmbol.org
Language                                : Spanish
Service kind                            : Complete Main
Default                                  : No
Forced                                  : No

Text #1
ID                                      : 4
Format                                  : UTF-8
Codec ID                                : S_TEXT/UTF8
Codec ID/Info                            : UTF-8 Plain Text
Duration                                : 1 h 42 min
Bit rate                                : 0 b/s
Count of elements                        : 20
Stream size                              : 451 Bytes (0%)
Title                                    : Se busca papá - Baba Aranıyor - 2020 | Filmbol.org
Language                                : Turkish
Default                                  : Yes
Forced                                  : No

Text #2
ID                                      : 5
Format                                  : UTF-8
Codec ID                                : S_TEXT/UTF8
Codec ID/Info                            : UTF-8 Plain Text
Duration                                : 1 h 42 min
Bit rate                                : 56 b/s
Count of elements                        : 1497
Stream size                              : 41.9 KiB (0%)
Title                                    : Se busca papá - Baba Aranıyor - 2020 | Filmbol.org
Language                                : Turkish
Default                                  : No
Forced                                  : No

Film Detayları


 Baba Aranıyor

 Baba Aranıyor

 Baba Aranıyor


Film Fragmanı


Film Detayları

Uptobox ile indir

1Fichier ile indir

1Fichier'den İndiremiyor musun? Tıklayın!


Mega linki şuan da gizli. Kullanıma açmak için konuya yorum yapın ve ardından sayfayı yenileyin.

Mega


Bunun için üzgünüz ancak, bu linke sadece premium üyeler erişebilir.

Filmbol Cloud







Konu ile Alakalı Benzer Konular
Konular Yazar Yorumlar Okunma Son Yorum
Filmin Yayınlanma Tarihi: 2015
Yeni Ahit (Le tout nouveau testament) - 2015 - TR+ORG - 720P | tt3792960 TheSteeL 0 10 , Saat: 23:52
Son Yorum: TheSteeL
Filmin Yayınlanma Tarihi: 2015
Diriliş (The Revenant) - 2015 - TR+ORG - 720P | tt1663202 BroserBros 7 3,664 , Saat: 19:42
Son Yorum: BroserBros
Filmin Yayınlanma Tarihi: 2018
Adalet 2 (The Equalizer 2) - 2018 - TR+ORG - 720P | tt3766354 BroserBros 1 726 , Saat: 19:30
Son Yorum: BroserBros
Filmin Yayınlanma Tarihi: 2019
Aslan Kral (The Lion King) - 2019 - TR+ORG - 720P | tt6105098 BroserBros 24 4,204 , Saat: 19:18
Son Yorum: BroserBros
Filmin Yayınlanma Tarihi: 2015
Ters Yüz (Inside Out) - 2015 - TR+ORG - 720P | tt2096673 BroserBros 10 7,060 , Saat: 19:07
Son Yorum: BroserBros

Hızlı Menü: