Filmbol Forum Film İndir BRRip XviD v San Andreas Fayı (San Andreas) - 2015 - TR - BRRip XviD | tt2126355
Mega linklerinin şikayet edilmemesi için global erişime kapatıp sadece yorum yapanlara açıyoruz. Bu linkleri gizleme işlemini mecburen yapıyoruz ve yorum yapmanızın siteye değil size faydası vardır. Teşekürler yazmayı çok görüp, Random/Spam mesajlar atarak Mega linklerini açmaya çalışan kullanıcılara önce süresiz ban, devam ederse IP ban atacağız.
Filmbol'da moderatör olmak ister misiniz? Bizimle iletişime geçmek için tıklayın!
San Andreas Fayı (San Andreas) - 2015 - TR - BRRip XviD | tt2126355
BroserBros
San Andreas Fayı (San Andreas) - 2015 - TR - BRRip XviD | tt2126355
5
3145
  • Derecelendirme: 0/5 - 0 oy
  • 1
  • 2
  • 3
  • 4
  • 5
Konuyu Okuyanlar:1 Ziyaretçi
Şuan Online!
Filmin Yayınlanma Tarihi: 2015 
WWW
Şuan Online!
BroserBros Kurucu Admin
*******
Admin



 San Andreas Fayı



California’da yaşanan ve Batı Kıyı Şeridi’nin tamamını etkileyen büyük çaplı bir deprem faciasının ardından yaşanan arama kurtarma sürecinde, itfaiye eri Tom’un yaşadıklarını ön plana alan film, genç adamın duygusal hayatı ile sorumluluklarını dengede tutma çabasına odaklanıyor.

Kötü şöhreti ile bilinen San Andreas Fayı’nın kırılması ile 9 şiddetindeki bir depremle Kaliforniya sallanır. Bir arama kurtarma pilotu ve artık araları pek de iyi olmayan eşi, Los Angeles’tan San Francisco’ya, kızlarını kurtarmak için yola çıkarlar. Ancak, kuzeye yaptıkları bu tehlikeli yolculuk, henüz sadece bir başlangıçtır. Ve ne zaman en kötüsü artık bitti diye düşünseler, daha da kötüsü başlamaktadır.

New Line Cinema ve Village Roadshow Pictures’ın yapımcılığında, Dwayne Johnson’ın başrolünde oynadığı filmin yönetmeni Brad Peyton, yapımcısı ise Beau Flynn.

San Andreas Fayı (2015) (San Andreas) | tt2126355 Filmi Imdb'den 220,000 kişi tarafından oylandı ve 6,1 puan aldı. Bu film için editör puanı %72 olarak belirlendi. İyi Seyirler!

Teknik Detaylar

Kod :
General
Unique ID                                : 317625328860850423080886680699690957921 (0xEEF469C724031CE7525CA17521E63C61)
Complete name                            : /home/BroserBros/Desktop/3/San.Andreas.Fayı.2015.BRRip.XviD.TR.Filmbol.avi
Format                                   : Matroska
Format version                           : Version 4
File size                                : 1.30 GiB
Duration                                 : 1 h 54 min
Overall bit rate                         : 1 631 kb/s
Movie name                               : San Andreas Fayı - San Andreas - 2015 | Filmbol.org
Encoded date                             : UTC 2021-05-01 11:02:15
Writing application                      : mkvmerge v53.0.0 ('Fool's Gold') 64-bit
Writing library                          : libebml v1.4.1 + libmatroska v1.6.2
FileExtension_Invalid                    : mkv mk3d mka mks

Video
ID                                       : 1
Format                                   : MPEG-4 Visual
Format profile                           : Advanced [email protected]
Format settings                          : BVOP2 / Custom Matrix
Format settings, BVOP                    : 2
Format settings, QPel                    : No
Format settings, GMC                     : No warppoints
Format settings, Matrix                  : Custom
Muxing mode                              : Packed bitstream
Codec ID                                 : V_MS/VFW/FOURCC / XVID
Codec ID/Hint                            : XviD
Duration                                 : 1 h 54 min
Bit rate                                 : 1 501 kb/s
Width                                    : 720 pixels
Height                                   : 304 pixels
Display aspect ratio                     : 2.35:1
Frame rate mode                          : Constant
Frame rate                               : 23.976 (24000/1001) FPS
Color space                              : YUV
Chroma subsampling                       : 4:2:0
Bit depth                                : 8 bits
Scan type                                : Progressive
Compression mode                         : Lossy
Bits/(Pixel*Frame)                       : 0.286
Stream size                              : 1.20 GiB (92%)
Title                                    : San Andreas Fayı - San Andreas - 2015 | Filmbol.org
Writing library                          : XviD 1.2.1 (UTC 2008-12-04)
Default                                  : Yes
Forced                                   : No

Audio
ID                                       : 2
Format                                   : MPEG Audio
Format version                           : Version 1
Format profile                           : Layer 3
Format settings                          : Joint stereo / MS Stereo
Codec ID                                 : A_MPEG/L3
Codec ID/Hint                            : MP3
Duration                                 : 1 h 54 min
Bit rate mode                            : Constant
Bit rate                                 : 128 kb/s
Channel(s)                               : 2 channels
Sampling rate                            : 48.0 kHz
Frame rate                               : 41.667 FPS (1152 SPF)
Compression mode                         : Lossy
Stream size                              : 105 MiB (8%)
Title                                    : San Andreas Fayı - San Andreas - 2015 | Filmbol.org
Writing library                          : LAME3.98.4
Default                                  : Yes
Forced                                   : No

Film Detayları


 San Andreas Fayı

 San Andreas Fayı

 San Andreas Fayı


Film Fragmanı


Film Detayları


Uptobox ile indir

1Fichier ile indir

1Fichier'den İndiremiyor musun? Tıklayın!


Mega linki şuan da gizli. Kullanıma açmak için konuya yorum yapın ve ardından sayfayı yenileyin.

Mega


Bunun için üzgünüz ancak, bu linke sadece premium üyeler erişebilir.

Filmbol Cloud





Şuan Offine!
Şuan Offine!
haytoki1 Uzman Üye
**
Uzman Üye

  • Konular0
  • Mesajlar18
  • Rep puanı 0
güzel film
Şuan Offine!
Şuan Offine!
turkopol Yeni Üye
*
Üye

  • Konular0
  • Mesajlar1
  • Rep puanı 0
harika bir film. teşekkürler
Şuan Online!
Şuan Online!
BroserBros Kurucu Admin
*******
Admin

17.12.2019 Güncelleme Notu:

Linkler yenilendi. Kırık linkler kaldırıldı ve Genel Konu Düzenlemesi Yapıldı
Şuan Online!
Şuan Online!
Furkan61 Süper Üye
***
Super Üye

  • Konular0
  • Mesajlar227
  • Rep puanı 4
Gerçekten tam bir alexandra daddario hayranı olarak mükemmel film dwayne johnson alexandra ikilisi mükemmel aynı baywatch'da olduğu gibi EFSANEE
Şuan Online!
Şuan Online!
BroserBros Kurucu Admin
*******
Admin

02.05.2021 Yönetici Notu:

Kırık linkler kontrol edildi, kaldırıldı ve yenilendi. Tüm linkler tamamen çalışır durumda.


Hızlı Menü: