Filmbol Forum Film İndir BRRip XviD v Yıldız Savaşları 6: Jedi'ın Dönüşü (Star Wars: Episode VI - Return of the Jedi) - 1983 - TR - BRRip XviD | tt0086190
Mega linklerinin şikayet edilmemesi için global erişime kapatıp sadece yorum yapanlara açıyoruz. Bu linkleri gizleme işlemini mecburen yapıyoruz ve yorum yapmanızın siteye değil size faydası vardır. Teşekürler yazmayı çok görüp, Random/Spam mesajlar atarak Mega linklerini açmaya çalışan kullanıcılara önce süresiz ban, devam ederse IP ban atacağız.
Filmbol'da moderatör olmak ister misiniz? Bizimle iletişime geçmek için tıklayın!
Yıldız Savaşları 6: Jedi'ın Dönüşü (Star Wars: Episode VI - Return of the Jedi) - 1983 - TR - BRRip XviD | tt0086190
BroserBros
Yıldız Savaşları 6: Jedi'ın Dönüşü (Star Wars: Episode VI - Return of the Jedi) - 1983 - TR - BRRip XviD | tt0086190
8
1805
  • Derecelendirme: 0/5 - 0 oy
  • 1
  • 2
  • 3
  • 4
  • 5
Konuyu Okuyanlar:1 Ziyaretçi
Şuan Online!
Filmin Yayınlanma Tarihi: 1983 
WWW
Şuan Online!
BroserBros Kurucu Admin
*******
Admin



 Yıldız Savaşları 6: Jedi'ın Dönüşü



Luke Skywalker ve arkadaşları Han Solo’yu kurtarmak üzere Tatoonie gezegenine doğru yol almaktadırlar. Bu esnada İmparatorluk ise ikinci Death Star’ı yok etmek üzere büyük bir saldırıya hazırlanmaktadır. Luke Skywalker’ın aklında gezegeni kurtarmak ve babasını yeniden gücün aydınlık tarafında doğru çekmek vardır.
George Lucas’ın zihninden ve Richard Marquand’ın kamerasından perdeye yansıyan Star Wars VI: Return of the Jedi, ilk üçlemeye son noktayı koyuyor ve başta Darth Vader olmak üzere bütün karakterlerinin kaderini belirliyor.

Yıldız Savaşları 6: Jedi'ın Dönüşü (1983) (Star Wars: Episode VI - Return of the Jedi) | tt0086190 Filmi Imdb'den 1,000,000 kişi tarafından oylandı ve 8,3 puan aldı. Bu film için editör puanı %85 olarak belirlendi. İyi Seyirler!

Teknik Detaylar

Kod :
General
Unique ID                                : 291941051422235583471622566133231032228 (0xDBA1CD2189B3C7FD7EE509E676C897A4)
Complete name                            : /home/BroserBros/Desktop/6/Yıldız.Savaşları.Bölüm.6.Jedinin.Dönüşü.1983.BRRip.XViD.TR.Filmbol.avi
Format                                   : Matroska
Format version                           : Version 4
File size                                : 685 MiB
Duration                                 : 2 h 14 min
Overall bit rate                         : 710 kb/s
Movie name                               : Yıldız Savaşları Bölüm 6: Jedinin Dönüşü - Star Wars Episode 6: Return of the Jedi - 1983 | Filmbol.org
Encoded date                             : UTC 2021-05-04 10:25:20
Writing application                      : mkvmerge v53.0.0 ('Fool's Gold') 64-bit
Writing library                          : libebml v1.4.1 + libmatroska v1.6.2
FileExtension_Invalid                    : mkv mk3d mka mks

Video
ID                                       : 1
Format                                   : MPEG-4 Visual
Format profile                           : Advanced [email protected]
Format settings                          : BVOP2 / Custom Matrix
Format settings, BVOP                    : 2
Format settings, QPel                    : No
Format settings, GMC                     : No warppoints
Format settings, Matrix                  : Custom
Muxing mode                              : Packed bitstream
Codec ID                                 : V_MS/VFW/FOURCC / XVID
Codec ID/Hint                            : XviD
Duration                                 : 2 h 14 min
Bit rate                                 : 629 kb/s
Width                                    : 672 pixels
Height                                   : 288 pixels
Display aspect ratio                     : 2.35:1
Frame rate mode                          : Constant
Frame rate                               : 23.976 (23976/1000) FPS
Color space                              : YUV
Chroma subsampling                       : 4:2:0
Bit depth                                : 8 bits
Scan type                                : Progressive
Compression mode                         : Lossy
Bits/(Pixel*Frame)                       : 0.136
Stream size                              : 606 MiB (89%)
Title                                    : Yıldız Savaşları Bölüm 6: Jedinin Dönüşü - Star Wars Episode 6: Return of the Jedi - 1983 | Filmbol.org
Writing library                          : XviD 1.1.2 (UTC 2006-11-01)
Default                                  : Yes
Forced                                   : No

Audio
ID                                       : 2
Format                                   : MPEG Audio
Format version                           : Version 1
Format profile                           : Layer 3
Format settings                          : Joint stereo / MS Stereo
Codec ID                                 : A_MPEG/L3
Codec ID/Hint                            : MP3
Duration                                 : 2 h 14 min
Bit rate mode                            : Constant
Bit rate                                 : 80.0 kb/s
Channel(s)                               : 2 channels
Sampling rate                            : 32.0 kHz
Frame rate                               : 27.778 FPS (1152 SPF)
Compression mode                         : Lossy
Stream size                              : 77.1 MiB (11%)
Title                                    : Yıldız Savaşları Bölüm 6: Jedinin Dönüşü - Star Wars Episode 6: Return of the Jedi - 1983 | Filmbol.org
Default                                  : Yes
Forced                                   : No

Film Detayları


 Yıldız Savaşları 6: Jedi'ın Dönüşü

 Yıldız Savaşları 6: Jedi'ın Dönüşü

 Yıldız Savaşları 6: Jedi'ın Dönüşü


Film Fragmanı


Film Detayları


Uptobox ile indir

1Fichier ile indir

1Fichier'den İndiremiyor musun? Tıklayın!


Mega linki şuan da gizli. Kullanıma açmak için konuya yorum yapın ve ardından sayfayı yenileyin.

Mega


Bunun için üzgünüz ancak, bu linke sadece premium üyeler erişebilir.

Filmbol Cloud





Şuan Online!
Şuan Online!
BroserBros Kurucu Admin
*******
Admin

16.12.2019 Güncelleme Notu:

Linkler yenilendi. Kırık linkler kaldırıldı ve Genel Konu Düzenlemesi Yapıldı
Şuan Offine!
Şuan Offine!
karabudak Uzman Üye
**
Uzman Üye

  • Konular0
  • Mesajlar9
  • Rep puanı 0
teşekkürler

K A R A B U D A K


1pv17Y.png



Şuan Offine!
Şuan Offine!
0ndu Uzman Üye
**
Uzman Üye

  • Konular0
  • Mesajlar6
  • Rep puanı 0
eywwwwwwwwww
Şuan Offine!
Şuan Offine!
qaaNz Uzman Üye
**
Uzman Üye

  • Konular0
  • Mesajlar9
  • Rep puanı 0
teşekkürler
Şuan Offine!
Şuan Offine!
qaaNz Uzman Üye
**
Uzman Üye

  • Konular0
  • Mesajlar9
  • Rep puanı 0
teşekkürler
Şuan Offine!
Şuan Offine!
anan2231 Yeni Üye
*
Üye

  • Konular0
  • Mesajlar1
  • Rep puanı 0
güzel filmdi rfefefe fer3free
Şuan Online!
Şuan Online!
BroserBros Kurucu Admin
*******
Admin

05.05.2021 Yönetici Notu:

Kırık linkler kontrol edildi, kaldırıldı ve yenilendi. Tüm linkler tamamen çalışır durumda.
Şuan Online!
Şuan Online!
Furkan61 Süper Üye
***
Super Üye

  • Konular0
  • Mesajlar227
  • Rep puanı 4
güzel


Hızlı Menü: