Filmbol Forum Film İndir 1080P v Yıldız Savaşları 5: İmparator (Star Wars: Episode V - The Empire Strikes Back) - 1980 - TR+ORG - 1080P | tt0080684
Mega linklerinin şikayet edilmemesi için global erişime kapatıp sadece yorum yapanlara açıyoruz. Bu linkleri gizleme işlemini mecburen yapıyoruz ve yorum yapmanızın siteye değil size faydası vardır. Teşekürler yazmayı çok görüp, Random/Spam mesajlar atarak Mega linklerini açmaya çalışan kullanıcılara önce süresiz ban, devam ederse IP ban atacağız.
Filmbol'da moderatör olmak ister misiniz? Bizimle iletişime geçmek için tıklayın!
Yıldız Savaşları 5: İmparator (Star Wars: Episode V - The Empire Strikes Back) - 1980 - TR+ORG - 1080P | tt0080684
BroserBros
Yıldız Savaşları 5: İmparator (Star Wars: Episode V - The Empire Strikes Back) - 1980 - TR+ORG - 1080P | tt0080684
18
3299
  • Derecelendirme: 0/5 - 0 oy
  • 1
  • 2
  • 3
  • 4
  • 5
Konuyu Okuyanlar:1 Ziyaretçi
Şuan Online!
Filmin Yayınlanma Tarihi: 1980 
WWW
Şuan Online!
BroserBros Kurucu Admin
*******
Admin



 Yıldız Savaşları 5: İmparator



Yıldız Savaşlarının bu filminde İmparator Darth Vader’ın da yardımıyla asileri ezerek evreni hakimiyeti altına almaya çalışmaktadır. Casus robotlar sayesinde asilerin merkezinin Hoth gezegeninde olduğunu öğrenir ve birlikleri oraya gönderirler.Luke Skywalker, Han Solo ve Prenses Lea, son anda Bulut Şehri’ne kaçarlar. Luke bu arada Yoda’yı bulmak ve Jedi eğitimini tamamlamak üzere yola çıkar.Kahramanlarımız bir araya gelip İmparator’u yenebilecekler midir ?

Yıldız Savaşları 5: İmparator (1980) (Star Wars: Episode V - The Empire Strikes Back) | tt0080684 Filmi Imdb'den 1,200,000 kişi tarafından oylandı ve 8,7 puan aldı. Bu film için editör puanı %92 olarak belirlendi. İyi Seyirler!

Teknik Detaylar

Kod :
General
Unique ID                                : 76281139453594960633311842480034886056 (0x3963368B87CB9B38233B0B61F09F31A8)
Complete name                            : /home/BroserBros/Desktop/5/Yıldız.Savaşları.Bölüm.5.İmparator.1980.1080p.BluRay.x264.TR.ENG.Filmbol.mkv
Format                                   : Matroska
Format version                           : Version 4
File size                                : 2.04 GiB
Duration                                 : 2 h 7 min
Overall bit rate                         : 2 295 kb/s
Movie name                               : Yıldız Savaşları Bölüm 5: İmparator - Star Wars Episode 5: The Empire Strikes Back - 1980 | Filmbol.org
Encoded date                             : UTC 2021-05-04 08:10:08
Writing application                      : mkvmerge v53.0.0 ('Fool's Gold') 64-bit
Writing library                          : libebml v1.4.1 + libmatroska v1.6.2

Video
ID                                       : 1
Format                                   : AVC
Format/Info                              : Advanced Video Codec
Format profile                           : [email protected]
Format settings                          : CABAC / 5 Ref Frames
Format settings, CABAC                   : Yes
Format settings, Reference frames        : 5 frames
Codec ID                                 : V_MPEG4/ISO/AVC
Duration                                 : 2 h 7 min
Bit rate                                 : 1 817 kb/s
Width                                    : 1 920 pixels
Height                                   : 816 pixels
Display aspect ratio                     : 2.35:1
Frame rate mode                          : Constant
Frame rate                               : 23.976 (24000/1001) FPS
Color space                              : YUV
Chroma subsampling                       : 4:2:0
Bit depth                                : 8 bits
Scan type                                : Progressive
Bits/(Pixel*Frame)                       : 0.048
Stream size                              : 1.62 GiB (79%)
Title                                    : 1080P - Filmbol.org
Writing library                          : x264 core 129 r2245 bc13772
Encoding settings                        : cabac=1 / ref=5 / deblock=1:0:0 / analyse=0x3:0x133 / me=umh / subme=9 / psy=1 / psy_rd=1.00:0.00 / mixed_ref=1 / me_range=16 / chroma_me=1 / trellis=2 / 8x8dct=1 / cqm=0 / deadzone=21,11 / fast_pskip=1 / chroma_qp_offset=-2 / threads=12 / lookahead_threads=2 / sliced_threads=0 / nr=0 / decimate=1 / interlaced=0 / bluray_compat=0 / constrained_intra=0 / bframes=8 / b_pyramid=2 / b_adapt=2 / b_bias=0 / direct=3 / weightb=1 / open_gop=0 / weightp=2 / keyint=240 / keyint_min=23 / scenecut=40 / intra_refresh=0 / rc_lookahead=60 / rc=2pass / mbtree=1 / bitrate=1817 / ratetol=1.0 / qcomp=0.60 / qpmin=10 / qpmax=51 / qpstep=4 / cplxblur=20.0 / qblur=0.5 / ip_ratio=1.40 / aq=1:1.00
Default                                  : Yes
Forced                                   : No

Audio #1
ID                                       : 2
Format                                   : AC-3
Format/Info                              : Audio Coding 3
Commercial name                          : Dolby Digital
Codec ID                                 : A_AC3
Duration                                 : 2 h 7 min
Bit rate mode                            : Constant
Bit rate                                 : 384 kb/s
Channel(s)                               : 6 channels
Channel layout                           : L R C LFE Ls Rs
Sampling rate                            : 48.0 kHz
Frame rate                               : 31.250 FPS (1536 SPF)
Compression mode                         : Lossy
Delay relative to video                  : 8 s 875 ms
Stream size                              : 349 MiB (17%)
Title                                    : Türkçe - Filmbol.org
Language                                 : Turkish
Service kind                             : Complete Main
Default                                  : Yes
Forced                                   : Yes

Audio #2
ID                                       : 3
Format                                   : AAC LC
Format/Info                              : Advanced Audio Codec Low Complexity
Codec ID                                 : A_AAC-2
Duration                                 : 2 h 7 min
Bit rate                                 : 92.0 kb/s
Channel(s)                               : 2 channels
Channel layout                           : L R
Sampling rate                            : 48.0 kHz
Frame rate                               : 46.875 FPS (1024 SPF)
Compression mode                         : Lossy
Delay relative to video                  : -125 ms
Stream size                              : 83.8 MiB (4%)
Title                                    : Orijinal Dil - Filmbol.org
Language                                 : English
Default                                  : No
Forced                                   : No

Text
ID                                       : 4
Format                                   : UTF-8
Codec ID                                 : S_TEXT/UTF8
Codec ID/Info                            : UTF-8 Plain Text
Duration                                 : 2 h 0 min
Bit rate                                 : 43 b/s
Count of elements                        : 1147
Stream size                              : 38.4 KiB (0%)
Title                                    : Türkçe - Filmbol.org
Language                                 : Turkish
Default                                  : No
Forced                                   : No

Film Detayları


 Yıldız Savaşları 5: İmparator

 Yıldız Savaşları 5: İmparator

 Yıldız Savaşları 5: İmparator


Film Fragmanı


Film Detayları

Uptobox ile indir

1Fichier ile indir

1Fichier'den İndiremiyor musun? Tıklayın!


Mega linki şuan da gizli. Kullanıma açmak için konuya yorum yapın ve ardından sayfayı yenileyin.

Mega


Bunun için üzgünüz ancak, bu linke sadece premium üyeler erişebilir.

Filmbol Cloud





Şuan Offine!
Şuan Offine!
GrimReaper Uzman Üye
**
Uzman Üye

  • Konular0
  • Mesajlar12
  • Rep puanı 0
güzel
Şuan Offine!
Şuan Offine!
umutmogan01 Uzman Üye
**
Uzman Üye

  • Konular0
  • Mesajlar6
  • Rep puanı 0
Nice film
Şuan Offine!
Şuan Offine!
muzafferk Yeni Üye
*
Üye

  • Konular0
  • Mesajlar5
  • Rep puanı 0
teşekkürler
Şuan Offine!
Şuan Offine!
Killanın Yardımcısı Yeni Üye
*
Üye

  • Konular0
  • Mesajlar1
  • Rep puanı 0
Çok güzel

Çok güzel
Şuan Online!
Şuan Online!
BroserBros Kurucu Admin
*******
Admin

16.12.2019 Güncelleme Notu:

Linkler yenilendi. Kırık linkler kaldırıldı ve Genel Konu Düzenlemesi Yapıldı
Şuan Offine!
Şuan Offine!
AliSavci Uzman Üye
**
Uzman Üye

  • Konular0
  • Mesajlar15
  • Rep puanı 0
Teşekkürler
Şuan Offine!
Şuan Offine!
arneas Yeni Üye
*
Üye

  • Konular0
  • Mesajlar4
  • Rep puanı 0
teşşkkr
Şuan Offine!
Şuan Offine!
asdas Uzman Üye
**
Uzman Üye

  • Konular0
  • Mesajlar6
  • Rep puanı 0
harika
Şuan Offine!
Şuan Offine!
asd123321 Yeni Üye
*
Üye

  • Konular0
  • Mesajlar4
  • Rep puanı 0
iyi heeeeee


Konu ile Alakalı Benzer Konular
Konular Yazar Yorumlar Okunma Son Yorum
Filmin Yayınlanma Tarihi: 2011
Transformers: Ay'ın Karanlık Yüzü (Transformers: Dark of the Moon) - 2011 - TR+ORG - 1080P | tt1399103 TheSteeL 0 7 11 saat önce
Son Yorum: TheSteeL
Filmin Yayınlanma Tarihi: 2021
Her Şey Yok Olur (Things Heard & Seen) - 2021 - TR+ORG - 1080P | tt10962368 TheSteeL 0 6 11 saat önce
Son Yorum: TheSteeL
Filmin Yayınlanma Tarihi: 2018
Örümcek-Adam: Örümcek Evreninde (Spider-Man: Into the Spider-Verse) - 2018 - TR+ORG - 1080P | tt4633694 BroserBros 40 3,572 , Saat: 20:57
Son Yorum: DF FD
Filmin Yayınlanma Tarihi: 2018
Han Solo: Bir Star Wars Hikâyesi (Solo: A Star Wars Story) - 2018 - TR+ORG - 1080P | tt3778644 BroserBros 2 673 , Saat: 20:11
Son Yorum: BroserBros
Filmin Yayınlanma Tarihi: 2015
Yıldız Savaşları 7: Güç Uyanıyor (Star Wars: Episode VII - The Force Awakens) - 2015 - TR+ORG - 1080P | tt2488496 BroserBros 24 4,558 , Saat: 18:00
Son Yorum: BroserBros

Hızlı Menü: