Filmbol Forum Film İndir 1080P v Yıldız Savaşları 1: Gizli Tehlike (Star Wars: Episode I - The Phantom Menace) - 1999 - TR+ORG - 1080P | tt0120915
Mega linklerinin şikayet edilmemesi için global erişime kapatıp sadece yorum yapanlara açıyoruz. Bu linkleri gizleme işlemini mecburen yapıyoruz ve yorum yapmanızın siteye değil size faydası vardır. Teşekürler yazmayı çok görüp, Random/Spam mesajlar atarak Mega linklerini açmaya çalışan kullanıcılara önce süresiz ban, devam ederse IP ban atacağız.
Filmbol'da moderatör olmak ister misiniz? Bizimle iletişime geçmek için tıklayın!
Yıldız Savaşları 1: Gizli Tehlike (Star Wars: Episode I - The Phantom Menace) - 1999 - TR+ORG - 1080P | tt0120915
BroserBros
Yıldız Savaşları 1: Gizli Tehlike (Star Wars: Episode I - The Phantom Menace) - 1999 - TR+ORG - 1080P | tt0120915
28
5788
  • Derecelendirme: 0/5 - 0 oy
  • 1
  • 2
  • 3
  • 4
  • 5
Konuyu Okuyanlar:1 Ziyaretçi
Şuan Online!
Filmin Yayınlanma Tarihi: 1999 
WWW
Şuan Online!
BroserBros Kurucu Admin
*******
Admin



 Yıldız Savaşları 1: Gizli Tehlike



Genç Luke Skywalker’ın içindeki gücü keşfedip galaksinin zalim imparatoruna başkaldırmasına henüz on yıllar vardır. Hatta Luke henüz doğmamıştır. Barış içindeki galakside Cumhuriyet hüküm sürmektedir.
Barışçıl bir gezegen olan Naboo, iyi yürekli genç Kraliçe Amidala tarafından yönetilmektedir. Gizli Sith Lordu ve onun şampiyonu Darth Maul’un maşası olan Ticaret Federasyonu, barışı sarsacak girişimler ve adil olmayan müzakere taktikleriyle Amidala’yı köşeye sıkıştırmaktadır. Jedi şövalyesi Qui-Gon Jinn ve çömezi Obi-Wan Kenobi durumu incelemek için Naboo’ya gönderilirler.
Jedi’lar giderek derinleşen komployu keşfederken 9 yaşındaki Anakin’le tanışırlar. Küçük çocuğun mekaniğe karşı müthiş bir yeteneği ve şeytani bir zekası vardır. Jar Jar Binks isimli geveze ve kurbağamsı mahluğun da dostluğunu edinerek büyüyen uyumsuz grup, bir yandan Federasyonun robot ordularına karşı Amida’lanın yardımına koşarken, öte yandan da Darth Maul’la yüzleşmek zorunda kalacaktır. Galakside bir şeyler, geri dönmemek üzere değişmeye başlamıştır…

Bizleri orijinal Yıldız Savaşları üçlemesinin kökenlerine götürmek için on yıllarca bekleyen George Lucas, efsaneye iyi bir başlangıç yapıyor ve o zamana dek görülmemiş görkemde bilim kurgu dünyaları yaratıyor. Yine de serinin hayranları, orijinal üçlemedeki epik havanın daha hafif ve mizahi bir tonla değiştirilmiş olmasından pek hoşnut değiller.

Yıldız Savaşları 1: Gizli Tehlike (1999) (Star Wars: Episode I - The Phantom Menace) | tt0120915 Filmi Imdb'den 750,000 kişi tarafından oylandı ve 6,5 puan aldı. Bu film için editör puanı %79 olarak belirlendi. İyi Seyirler!

Teknik Detaylar

Kod :
General
Unique ID                                : 75757749392337252682956434706684265033 (0x38FE696C35D849EDC9F9C062E5AD4249)
Complete name                            : /home/BroserBros/Desktop/1/Yıldız.Savaşları.Bölüm.1.Gizli.Tehlike.1999.1080p.BluRay.x264.TR.ENG.Filmbol.mkv
Format                                   : Matroska
Format version                           : Version 4
File size                                : 2.24 GiB
Duration                                 : 2 h 16 min
Overall bit rate                         : 2 359 kb/s
Movie name                               : Yıldız Savaşları Bölüm 1: Gizli Tehlike - Star Wars Episode 1: The Phantom Menace - 1999 | Filmbol.org
Encoded date                             : UTC 2021-05-03 12:49:19
Writing application                      : mkvmerge v53.0.0 ('Fool's Gold') 64-bit
Writing library                          : libebml v1.4.1 + libmatroska v1.6.2

Video
ID                                       : 1
Format                                   : AVC
Format/Info                              : Advanced Video Codec
Format profile                           : [email protected]
Format settings                          : CABAC / 5 Ref Frames
Format settings, CABAC                   : Yes
Format settings, Reference frames        : 5 frames
Codec ID                                 : V_MPEG4/ISO/AVC
Duration                                 : 2 h 16 min
Bit rate                                 : 1 798 kb/s
Width                                    : 1 920 pixels
Height                                   : 816 pixels
Display aspect ratio                     : 2.35:1
Frame rate mode                          : Constant
Frame rate                               : 23.976 (24000/1001) FPS
Color space                              : YUV
Chroma subsampling                       : 4:2:0
Bit depth                                : 8 bits
Scan type                                : Progressive
Bits/(Pixel*Frame)                       : 0.048
Stream size                              : 1.71 GiB (76%)
Title                                    : 1080P - Filmbol.org
Writing library                          : x264 core 129 r2245 bc13772
Encoding settings                        : cabac=1 / ref=5 / deblock=1:0:0 / analyse=0x3:0x133 / me=umh / subme=9 / psy=1 / psy_rd=1.00:0.00 / mixed_ref=1 / me_range=16 / chroma_me=1 / trellis=2 / 8x8dct=1 / cqm=0 / deadzone=21,11 / fast_pskip=1 / chroma_qp_offset=-2 / threads=12 / lookahead_threads=2 / sliced_threads=0 / nr=0 / decimate=1 / interlaced=0 / bluray_compat=0 / constrained_intra=0 / bframes=8 / b_pyramid=2 / b_adapt=2 / b_bias=0 / direct=3 / weightb=1 / open_gop=0 / weightp=2 / keyint=240 / keyint_min=23 / scenecut=40 / intra_refresh=0 / rc_lookahead=60 / rc=2pass / mbtree=1 / bitrate=1798 / ratetol=1.0 / qcomp=0.60 / qpmin=10 / qpmax=51 / qpstep=4 / cplxblur=20.0 / qblur=0.5 / ip_ratio=1.40 / aq=1:1.00
Default                                  : Yes
Forced                                   : No

Audio #1
ID                                       : 2
Format                                   : AC-3
Format/Info                              : Audio Coding 3
Commercial name                          : Dolby Digital
Codec ID                                 : A_AC3
Duration                                 : 2 h 16 min
Bit rate mode                            : Constant
Bit rate                                 : 448 kb/s
Channel(s)                               : 6 channels
Channel layout                           : L R C LFE Ls Rs
Sampling rate                            : 48.0 kHz
Frame rate                               : 31.250 FPS (1536 SPF)
Compression mode                         : Lossy
Delay relative to video                  : -125 ms
Stream size                              : 436 MiB (19%)
Title                                    : Türkçe - Filmbol.org
Language                                 : Turkish
Service kind                             : Complete Main
Default                                  : Yes
Forced                                   : No

Audio #2
ID                                       : 3
Format                                   : AAC LC
Format/Info                              : Advanced Audio Codec Low Complexity
Codec ID                                 : A_AAC-2
Duration                                 : 2 h 16 min
Bit rate                                 : 92.0 kb/s
Channel(s)                               : 2 channels
Channel layout                           : L R
Sampling rate                            : 48.0 kHz
Frame rate                               : 46.875 FPS (1024 SPF)
Compression mode                         : Lossy
Delay relative to video                  : -125 ms
Stream size                              : 89.6 MiB (4%)
Title                                    : Orjinal Dil - Filmbol.org
Language                                 : English
Default                                  : No
Forced                                   : No

Text
ID                                       : 4
Format                                   : PGS
Muxing mode                              : zlib
Codec ID                                 : S_HDMV/PGS
Codec ID/Info                            : Picture based subtitle format used on BDs/HD-DVDs
Duration                                 : 2 h 16 min
Bit rate                                 : 46.3 kb/s
Count of elements                        : 2866
Stream size                              : 45.1 MiB (2%)
Title                                    : Türkçe - Filmbol.org
Language                                 : Turkish
Default                                  : No
Forced                                   : No

Film Detayları


 Yıldız Savaşları 1: Gizli Tehlike

 Yıldız Savaşları 1: Gizli Tehlike

 Yıldız Savaşları 1: Gizli Tehlike


Film Fragmanı


Film Detayları

Uptobox ile indir

1Fichier ile indir

1Fichier'den İndiremiyor musun? Tıklayın!


Mega linki şuan da gizli. Kullanıma açmak için konuya yorum yapın ve ardından sayfayı yenileyin.

Mega


Bunun için üzgünüz ancak, bu linke sadece premium üyeler erişebilir.

Filmbol Cloud





Şuan Offine!
Şuan Offine!
kalimomu565 Yeni Üye
*
Üye

  • Konular0
  • Mesajlar5
  • Rep puanı 0
tavsiye ederim
Şuan Offine!
Şuan Offine!
ruzgar787878 Süper Üye
***
Super Üye

  • Konular0
  • Mesajlar26
  • Rep puanı 0
thanks
Şuan Offine!
Şuan Offine!
GrimReaper Uzman Üye
**
Uzman Üye

  • Konular0
  • Mesajlar12
  • Rep puanı 0
güzel
Şuan Offine!
Şuan Offine!
bexdere Yeni Üye
*
Üye

  • Konular0
  • Mesajlar2
  • Rep puanı 0
güzel
Şuan Offine!
Şuan Offine!
Ardacan_akn Yeni Üye
*
Üye

  • Konular0
  • Mesajlar2
  • Rep puanı 0
Güzel
Şuan Offine!
Şuan Offine!
thedours Yeni Üye
*
Üye

  • Konular0
  • Mesajlar2
  • Rep puanı 0
teşekkürler
Şuan Offine!
Şuan Offine!
Nurx1907 Yeni Üye
*
Üye

  • Konular0
  • Mesajlar1
  • Rep puanı 0
bencede
Şuan Offine!
Şuan Offine!
Mudur yetkili Yeni Üye
*
Üye

  • Konular0
  • Mesajlar3
  • Rep puanı 0
TAVSİYE OLUNUR GÜNCEL
Şuan Offine!
Şuan Offine!
ReasyK Yeni Üye
*
Üye

  • Konular0
  • Mesajlar2
  • Rep puanı 0
Hoş bir film


Hızlı Menü: