Filmbol Forum Film İndir 720P v Yıldız Savaşları 7: Güç Uyanıyor (Star Wars: Episode VII - The Force Awakens) - 2015 - TR+ORG - 720P | tt2488496
Mega linklerinin şikayet edilmemesi için global erişime kapatıp sadece yorum yapanlara açıyoruz. Bu linkleri gizleme işlemini mecburen yapıyoruz ve yorum yapmanızın siteye değil size faydası vardır. Teşekürler yazmayı çok görüp, Random/Spam mesajlar atarak Mega linklerini açmaya çalışan kullanıcılara önce süresiz ban, devam ederse IP ban atacağız.
Filmbol'da moderatör olmak ister misiniz? Bizimle iletişime geçmek için tıklayın!
Yıldız Savaşları 7: Güç Uyanıyor (Star Wars: Episode VII - The Force Awakens) - 2015 - TR+ORG - 720P | tt2488496
BroserBros
Yıldız Savaşları 7: Güç Uyanıyor (Star Wars: Episode VII - The Force Awakens) - 2015 - TR+ORG - 720P | tt2488496
14
3561
  • Derecelendirme: 4/5 - 2 oy
  • 1
  • 2
  • 3
  • 4
  • 5
Konuyu Okuyanlar:1 Ziyaretçi
Şuan Online!
Filmin Yayınlanma Tarihi: 2015 
WWW
Şuan Online!
BroserBros Kurucu Admin
*******
Admin



 Yıldız Savaşları 7: Güç Uyanıyor



Star Wars: Güç Uyanıyor (Yıldız Savaşları 7) filminde bu seriye yeni katılan Rey ve Finn karakterlerinin çevresinde şekillenen, Karanlık Taraf olan İlk Düzen’den (First Order) kaçarak hayatta kalma ve droid BB-8’e verilen gizli görevi yerine getirme öyküsü, Güç’ün yeni sahibine seslenmesiyle de farklı bir boyut kazanıyor. Baş karakter rollerinde oyuncular Daisy Ridley ve John Boyega’yı gördüğümüz filmde serinin fenomen karakterleri de geri dönüyor. Kadrosunda Ridley ve Boyega’nın yanı sıra ayrıca Oscar Isaac, Lupita Nyong’o, Gwendoline Christie, Adam Driver’ın da yer aldığı filmin orijinal kadrosunda bulunan Harrison Ford, Carrie Fisher, Mark Hamill, Peter Mayhew de bu filmle birlikte geri dönüyor. Lucasfilm’in yapımcılığında hayata geçirilen yapımın yönetmen koltuğunda bu sefer J.J. Abrams oturuyor. Senaryo ise Lawrence Kasdan & J.J. Abrams ve Michael Arndt’a ait.

Yıldız Savaşları 7: Güç Uyanıyor (2015) (Star Wars: Episode VII - The Force Awakens) | tt2488496 Filmi Imdb'den 900,000 kişi tarafından oylandı ve 7,9 puan aldı. Bu film için editör puanı %90 olarak belirlendi. İyi Seyirler!

Teknik Detaylar

Kod :
General
Unique ID                                : 46837731369329867078320018832050906156 (0x233C9E72AA04706C78E6ECF1AF2C642C)
Complete name                            : /home/BroserBros/Desktop/7/Yıldız.Savaşları.Bölüm.7.Güç.Uyanıyor.2015.720p.BluRay.x264.TR.ENG.Filmbol.mkv
Format                                   : Matroska
Format version                           : Version 4
File size                                : 1.37 GiB
Duration                                 : 2 h 18 min
Overall bit rate                         : 1 413 kb/s
Movie name                               : Yıldız Savaşları Bölüm 7: Güç Uyanıyor - Star Wars Episode 7: The Force Awakens - 2015 | Filmbol.org
Encoded date                             : UTC 2021-05-04 11:18:36
Writing application                      : mkvmerge v53.0.0 ('Fool's Gold') 64-bit
Writing library                          : libebml v1.4.1 + libmatroska v1.6.2

Video
ID                                       : 1
Format                                   : AVC
Format/Info                              : Advanced Video Codec
Format profile                           : [email protected]
Format settings                          : CABAC / 4 Ref Frames
Format settings, CABAC                   : Yes
Format settings, Reference frames        : 4 frames
Codec ID                                 : V_MPEG4/ISO/AVC
Duration                                 : 2 h 18 min
Bit rate                                 : 900 kb/s
Width                                    : 1 280 pixels
Height                                   : 534 pixels
Display aspect ratio                     : 2.40:1
Original display aspect ratio            : 2.40:1
Frame rate mode                          : Constant
Frame rate                               : 23.976 (24000/1001) FPS
Color space                              : YUV
Chroma subsampling                       : 4:2:0
Bit depth                                : 8 bits
Scan type                                : Progressive
Bits/(Pixel*Frame)                       : 0.055
Stream size                              : 889 MiB (64%)
Title                                    : 720P - Filmbol.org
Writing library                          : x264 core 148
Encoding settings                        : cabac=1 / ref=4 / deblock=1:-1:-1 / analyse=0x3:0x133 / me=umh / subme=9 / psy=1 / psy_rd=1.00:0.15 / mixed_ref=1 / me_range=24 / chroma_me=1 / trellis=2 / 8x8dct=1 / cqm=0 / deadzone=21,11 / fast_pskip=0 / chroma_qp_offset=-3 / threads=12 / lookahead_threads=1 / sliced_threads=0 / nr=0 / decimate=1 / interlaced=0 / bluray_compat=0 / constrained_intra=0 / bframes=3 / b_pyramid=2 / b_adapt=2 / b_bias=0 / direct=3 / weightb=1 / open_gop=0 / weightp=2 / keyint=250 / keyint_min=23 / scenecut=40 / intra_refresh=0 / rc_lookahead=60 / rc=2pass / mbtree=1 / bitrate=900 / ratetol=1.0 / qcomp=0.60 / qpmin=0 / qpmax=69 / qpstep=4 / cplxblur=20.0 / qblur=0.5 / vbv_maxrate=31250 / vbv_bufsize=31250 / nal_hrd=none / filler=0 / ip_ratio=1.40 / aq=1:1.00
Default                                  : Yes
Forced                                   : No

Audio #1
ID                                       : 2
Format                                   : AC-3
Format/Info                              : Audio Coding 3
Commercial name                          : Dolby Digital
Codec ID                                 : A_AC3
Duration                                 : 2 h 18 min
Bit rate mode                            : Constant
Bit rate                                 : 384 kb/s
Channel(s)                               : 6 channels
Channel layout                           : L R C LFE Ls Rs
Sampling rate                            : 48.0 kHz
Frame rate                               : 31.250 FPS (1536 SPF)
Compression mode                         : Lossy
Delay relative to video                  : 957 ms
Stream size                              : 380 MiB (27%)
Title                                    : Türkçe - Filmbol.org
Language                                 : Turkish
Service kind                             : Complete Main
Default                                  : Yes
Forced                                   : Yes

Audio #2
ID                                       : 3
Format                                   : AAC LC
Format/Info                              : Advanced Audio Codec Low Complexity
Codec ID                                 : A_AAC-2
Duration                                 : 2 h 18 min
Bit rate                                 : 128 kb/s
Channel(s)                               : 2 channels
Channel layout                           : L R
Sampling rate                            : 48.0 kHz
Frame rate                               : 46.875 FPS (1024 SPF)
Compression mode                         : Lossy
Delay relative to video                  : -43 ms
Stream size                              : 127 MiB (9%)
Title                                    : Orjinal Dil - Filmbol.org
Language                                 : English
Default                                  : No
Forced                                   : No

Text #1
ID                                       : 4
Format                                   : UTF-8
Codec ID                                 : S_TEXT/UTF8
Codec ID/Info                            : UTF-8 Plain Text
Duration                                 : 13 min 57 s
Bit rate                                 : 1 b/s
Count of elements                        : 7
Stream size                              : 182 Bytes (0%)
Title                                    : Türkçe Forced - Filmbol.org
Language                                 : Turkish
Default                                  : Yes
Forced                                   : Yes

Text #2
ID                                       : 5
Format                                   : UTF-8
Codec ID                                 : S_TEXT/UTF8
Codec ID/Info                            : UTF-8 Plain Text
Duration                                 : 2 h 0 min
Bit rate                                 : 41 b/s
Count of elements                        : 1296
Stream size                              : 36.6 KiB (0%)
Title                                    : Türkçe - Filmbol.org
Language                                 : Turkish
Default                                  : No
Forced                                   : No

Film Detayları


 Yıldız Savaşları 7: Güç Uyanıyor

 Yıldız Savaşları 7: Güç Uyanıyor

 Yıldız Savaşları 7: Güç Uyanıyor


Film Fragmanı


Film Detayları

Uptobox ile indir

1Fichier ile indir

1Fichier'den İndiremiyor musun? Tıklayın!


Mega linki şuan da gizli. Kullanıma açmak için konuya yorum yapın ve ardından sayfayı yenileyin.

Mega


Bunun için üzgünüz ancak, bu linke sadece premium üyeler erişebilir.

Filmbol Cloud





Şuan Offine!
Şuan Offine!
Arif DEĞERCAN Süper Üye
***
Super Üye

  • Konular0
  • Mesajlar33
  • Rep puanı 0
Cool Cool Big Grin Big Grin
Şuan Online!
Şuan Online!
BroserBros Kurucu Admin
*******
Admin

16.12.2019 Güncelleme Notu:

Linkler yenilendi. Kırık linkler kaldırıldı ve Genel Konu Düzenlemesi Yapıldı
Şuan Offine!
Şuan Offine!
playerrhan1 Yeni Üye
*
Üye

  • Konular0
  • Mesajlar1
  • Rep puanı 0
??????????
Şuan Offine!
Şuan Offine!
Hayta1987 Yeni Üye
*
Üye

  • Konular0
  • Mesajlar1
  • Rep puanı 0
hımmm
Şuan Offine!
Şuan Offine!
hakangumeler99 Uzman Üye
**
Uzman Üye

  • Konular0
  • Mesajlar7
  • Rep puanı 0
Bdbdbdb
Şuan Offine!
Şuan Offine!
Mahonixx Yeni Üye
*
Üye

  • Konular0
  • Mesajlar1
  • Rep puanı 0
htyhtyhh
Şuan Offine!
Şuan Offine!
Ezwinnn Yeni Üye
*
Üye

  • Konular0
  • Mesajlar1
  • Rep puanı 0
Asiirri iyi serinin devamida super
Şuan Online!
Şuan Online!
algül Süper Üye
***
Super Üye

  • Konular0
  • Mesajlar38
  • Rep puanı 0
çok sağol....
Şuan Offine!
Şuan Offine!
qaaNz Uzman Üye
**
Uzman Üye

  • Konular0
  • Mesajlar9
  • Rep puanı 0
teşekkürler.


Konu ile Alakalı Benzer Konular
Konular Yazar Yorumlar Okunma Son Yorum
Filmin Yayınlanma Tarihi: 2017
Örümcek-Adam: Eve Dönüş (Spider-Man: Homecoming) - 2017 - TR+ORG - 720P | tt2250912 BroserBros 11 1,415 35 dakika önce
Son Yorum: denizyesilova00
Filmin Yayınlanma Tarihi: 2015
Karınca Adam (Ant-Man) - 2015 - TR+ORG - 720P | tt0478970 BroserBros 4 1,929 41 dakika önce
Son Yorum: denizyesilova00
Filmin Yayınlanma Tarihi: 2016
Kaptan Amerika: Kahramanların Savaşı (Captain America: Civil War) - 2016 - TR+ORG - 720P | tt3498820 BroserBros 5 5,327 42 dakika önce
Son Yorum: denizyesilova00
Filmin Yayınlanma Tarihi: 2015
Yenilmezler: Ultron Çağı (Avengers: Age of Ultron) - 2015 - TR+ORG - 720P | tt2395427 BroserBros 8 5,989 2 saat önce
Son Yorum: denizyesilova00
Filmin Yayınlanma Tarihi: 2017
Galaksinin Koruyucuları 2 (Guardians of the Galaxy Vol. 2) - 2017 - TR+ORG - 720P | tt3896198 BroserBros 3 453 2 saat önce
Son Yorum: denizyesilova00

Hızlı Menü: