Filmbol Forum Film İndir 1080P v Ters Yüz (Inside Out) - 2015 - TR+ORG - 1080P | tt2096673
Mega linklerinin şikayet edilmemesi için global erişime kapatıp sadece yorum yapanlara açıyoruz. Bu linkleri gizleme işlemini mecburen yapıyoruz ve yorum yapmanızın siteye değil size faydası vardır. Teşekürler yazmayı çok görüp, Random/Spam mesajlar atarak Mega linklerini açmaya çalışan kullanıcılara önce süresiz ban, devam ederse IP ban atacağız.
Filmbol'da moderatör olmak ister misiniz? Bizimle iletişime geçmek için tıklayın!
Ters Yüz (Inside Out) - 2015 - TR+ORG - 1080P | tt2096673
BroserBros
Ters Yüz (Inside Out) - 2015 - TR+ORG - 1080P | tt2096673
26
9875
  • Derecelendirme: 5/5 - 1 oy
  • 1
  • 2
  • 3
  • 4
  • 5
Konuyu Okuyanlar:1 Ziyaretçi
Şuan Online!
Filmin Yayınlanma Tarihi: 2015 
WWW
Şuan Online!
BroserBros Kurucu Admin
*******
Admin



 Ters Yüz



Küçük Riley için hayat, babasının San Francisco’da yeni bir işe başlamasıyla baştan aşağıya değişir. Orta-Batı’daki yaşamını geride bırakan Riley’ı şimdi yeni bir ev, okul ve arkadaşlar beklemektedir. Peki içindeki duyguları o ne söyler? Neşe (Amy Poehler), Korku (Bill Hader), Öfke (Lewis Black), Nefret (Mindy Kaling) ve Üzüntü (Phyllis Smith)… Riley’in zihninin içinde yaşayan, ona günlük hayatında tavsiyeler veren duyguları bu yeni hayata alışırken ufak bir kaosa neden olacaktır. Neşe, Riley’nin en önemli duygusudur ve onu hep pozitif tutmaya çalışır ama diğer duygular bu yeni hayatına uyum sağlama konusunda biraz şaşkındır…

Ters Yüz (2015) (Inside Out) | tt2096673 Filmi Imdb'den 650,000 kişi tarafından oylandı ve 8,1 puan aldı. Bu film için editör puanı %93 olarak belirlendi. İyi Seyirler!

Teknik Detaylar

Kod :
General
Unique ID                                : 324075735835791839061841186618396694623 (0xF3CEB7654E2F79C1A95013B23B8CD85F)
Complete name                            : /home/BroserBros/Desktop/1/Ters.Yüz.2015.1080p.BluRay.x264.TR.ENG.Filmbol.mkv
Format                                   : Matroska
Format version                           : Version 4
File size                                : 1.86 GiB
Duration                                 : 1 h 34 min
Overall bit rate                         : 2 818 kb/s
Movie name                               : Ters Yüz - Inside Out - 2015 | Filmbol.org
Encoded date                             : UTC 2021-04-11 08:24:52
Writing application                      : mkvmerge v53.0.0 ('Fool's Gold') 64-bit
Writing library                          : libebml v1.4.1 + libmatroska v1.6.2

Video
ID                                       : 1
Format                                   : AVC
Format/Info                              : Advanced Video Codec
Format profile                           : [email protected]
Format settings                          : CABAC / 4 Ref Frames
Format settings, CABAC                   : Yes
Format settings, Reference frames        : 4 frames
Codec ID                                 : V_MPEG4/ISO/AVC
Duration                                 : 1 h 34 min
Bit rate                                 : 2 082 kb/s
Width                                    : 1 920 pixels
Height                                   : 1 080 pixels
Display aspect ratio                     : 16:9
Frame rate mode                          : Constant
Frame rate                               : 23.976 (24000/1001) FPS
Original frame rate                      : 23.976 (23976/1000) FPS
Color space                              : YUV
Chroma subsampling                       : 4:2:0
Bit depth                                : 8 bits
Scan type                                : Progressive
Bits/(Pixel*Frame)                       : 0.042
Stream size                              : 1.38 GiB (74%)
Title                                    : 1080P - Filmbol.org
Writing library                          : x264 core 123 r2189 35cf912
Encoding settings                        : cabac=1 / ref=4 / deblock=1:-1:-1 / analyse=0x3:0x133 / me=umh / subme=9 / psy=1 / psy_rd=1.00:0.15 / mixed_ref=1 / me_range=24 / chroma_me=1 / trellis=2 / 8x8dct=1 / cqm=0 / deadzone=21,11 / fast_pskip=0 / chroma_qp_offset=-3 / threads=12 / sliced_threads=0 / nr=0 / decimate=1 / interlaced=0 / bluray_compat=0 / constrained_intra=0 / bframes=3 / b_pyramid=2 / b_adapt=2 / b_bias=0 / direct=3 / weightb=1 / open_gop=0 / weightp=2 / keyint=250 / keyint_min=23 / scenecut=40 / intra_refresh=0 / rc_lookahead=60 / rc=2pass / mbtree=1 / bitrate=2082 / ratetol=1.0 / qcomp=0.60 / qpmin=0 / qpmax=69 / qpstep=4 / cplxblur=20.0 / qblur=0.5 / vbv_maxrate=31250 / vbv_bufsize=31250 / nal_hrd=none / ip_ratio=1.40 / aq=1:1.00
Default                                  : Yes
Forced                                   : No
Color range                              : Limited
Color primaries                          : BT.709
Matrix coefficients                      : BT.709

Audio #1
ID                                       : 2
Format                                   : AC-3
Format/Info                              : Audio Coding 3
Commercial name                          : Dolby Digital
Codec ID                                 : A_AC3
Duration                                 : 1 h 34 min
Bit rate mode                            : Constant
Bit rate                                 : 640 kb/s
Channel(s)                               : 6 channels
Channel layout                           : L R C LFE Ls Rs
Sampling rate                            : 48.0 kHz
Frame rate                               : 31.250 FPS (1536 SPF)
Compression mode                         : Lossy
Stream size                              : 433 MiB (23%)
Title                                    : Türkçe - Filmbol.org
Language                                 : Turkish
Service kind                             : Complete Main
Default                                  : Yes
Forced                                   : No

Audio #2
ID                                       : 3
Format                                   : AAC LC
Format/Info                              : Advanced Audio Codec Low Complexity
Codec ID                                 : A_AAC-2
Duration                                 : 1 h 34 min
Bit rate                                 : 93.6 kb/s
Channel(s)                               : 2 channels
Channel layout                           : L R
Sampling rate                            : 48.0 kHz
Frame rate                               : 46.875 FPS (1024 SPF)
Compression mode                         : Lossy
Stream size                              : 63.4 MiB (3%)
Title                                    : Orjinal Dil - Filmbol.org
Language                                 : English
Default                                  : No
Forced                                   : No

Text
ID                                       : 4
Format                                   : UTF-8
Codec ID                                 : S_TEXT/UTF8
Codec ID/Info                            : UTF-8 Plain Text
Duration                                 : 1 h 27 min
Bit rate                                 : 75 b/s
Count of elements                        : 1323
Stream size                              : 48.3 KiB (0%)
Title                                    : Türkçe - Filmbol.org
Language                                 : Turkish
Default                                  : No
Forced                                   : No

Film Detayları


 Ters Yüz

 Ters Yüz

 Ters Yüz


Film Fragmanı


Film Detayları

Uptobox ile indir

1Fichier ile indir

1Fichier'den İndiremiyor musun? Tıklayın!


Mega linki şuan da gizli. Kullanıma açmak için konuya yorum yapın ve ardından sayfayı yenileyin.

Mega


Bunun için üzgünüz ancak, bu linke sadece premium üyeler erişebilir.

Filmbol Cloud





Şuan Offine!
Şuan Offine!
tayfa35 Yeni Üye
*
Üye

  • Konular0
  • Mesajlar3
  • Rep puanı 5
Teşekkürler. Beğendiğim animasyonlardan biri
Şuan Offine!
Şuan Offine!
onurayaz Süper Üye
***
Super Üye

  • Konular0
  • Mesajlar14
  • Rep puanı 0
Ailece izlenebilecek bir animasyon bir filmi
Şuan Offine!
Şuan Offine!
back-ir Süper Üye
***
Super Üye

  • Konular0
  • Mesajlar29
  • Rep puanı 1
Hem büyüklere, hem küçüklere, anlam yüklü ve eğlenceli bir film.
Şuan Offine!
Şuan Offine!
dondurmax Yeni Üye
*
Üye

  • Konular0
  • Mesajlar1
  • Rep puanı 0
teşekkürler
Şuan Offine!
Şuan Offine!
Doremonizle Yeni Üye
*
Üye

  • Konular0
  • Mesajlar5
  • Rep puanı 0
Çok güzel Film Teşekkür ederim
Şuan Offine!
Şuan Offine!
cizgilihasan Uzman Üye
**
Uzman Üye

  • Konular0
  • Mesajlar6
  • Rep puanı 0
tenkis.
Şuan Offine!
Şuan Offine!
muti Uzman Üye
**
Uzman Üye

  • Konular0
  • Mesajlar9
  • Rep puanı 0
teşekkürler
Şuan Offine!
Şuan Offine!
semihk Yeni Üye
*
Üye

  • Konular0
  • Mesajlar1
  • Rep puanı 0
keyifli bir animasyon teşekkürler
Şuan Offine!
Şuan Offine!
concovanni Uzman Üye
**
Uzman Üye

  • Konular0
  • Mesajlar12
  • Rep puanı 1
teşekkürler


Hızlı Menü: