Filmbol Forum Film İndir BRRip XviD v Ve Sonra Dans Ettik (And Then We Danced) - 2019 - TR - BRRip XviD
Bildirimi Kapat
Üyelik alımları açıldı.


Bildirimi Kapat
Mega linklerinin şikayet edilmemesi için global erişime kapatıp sadece yorum yapanlara açıyoruz. Bu linkleri gizleme işlemini mecburen yapıyoruz ve yorum yapmanızın siteye değil size faydası vardır. Teşekkürler yazmayı çok görüp, Random/Spam/Anlamsız mesajlar atarak forumu kirletip Mega linklerini açmaya çalışan kullanıcılara süresiz ban atacağız.

Premium Üyelik Al

Ve Sonra Dans Ettik (And Then We Danced) - 2019 - TR - BRRip XviD
BroserBros
Ve Sonra Dans Ettik (And Then We Danced) - 2019 - TR - BRRip XviD
2
385
  • Derecelendirme: 0/5 - 0 oy
  • 1
  • 2
  • 3
  • 4
  • 5
Konuyu Okuyanlar:1 Ziyaretçi
Şuan Online!
Filmin Yayınlanma Tarihi: 2019 
WWW
Şuan Online!
BroserBros Kurucu Admin
*******
Admin








 Ve Sonra Dans Ettik



Merab çok istekli ve güçlü dans meraklısı bir gençtir. Bu hayattan beklentisi en iyi dansçı olmaktır ve bir gün yeni tanıştığı Irakli ile aralarında bir kıskançlık oluşur çünkü Irakli Merab için bir rakipten başkası değildir. Fakat zaman geçtikçe bu kıskançlık yerini bambaşka duygulara bırakır...

Ve Sonra Dans Ettik (2019) (And Then We Danced) Filmi Imdb'den 7,000 kişi tarafından oylandı ve 7,8 puan aldı. Bu film için editör puanı 6,5 olarak belirlendi. İyi Seyirler!

Teknik Detaylar

Kod :
General
Complete name                            : /root/Desktop/1/Ve.Sonra.Dans.Ettik.2019.HDRip.XViD.TR.Filmbol.avi
Format                                  : AVI
Format/Info                              : Audio Video Interleave
File size                                : 1.33 GiB
Duration                                : 1h 53mn
Overall bit rate                        : 1 680 Kbps

Video
ID                                      : 0
Format                                  : MPEG-4 Visual
Format profile                          : [email protected]
Format settings, BVOP                    : No
Format settings, QPel                    : No
Format settings, GMC                    : No warppoints
Format settings, Matrix                  : Default (H.263)
Codec ID                                : XVID
Codec ID/Hint                            : XviD
Duration                                : 1h 53mn
Bit rate                                : 1 539 Kbps
Width                                    : 720 pixels
Height                                  : 400 pixels
Display aspect ratio                    : 16:9
Frame rate                              : 23.976 fps
Color space                              : YUV
Chroma subsampling                      : 4:2:0
Bit depth                                : 8 bits
Scan type                                : Progressive
Compression mode                        : Lossy
Bits/(Pixel*Frame)                      : 0.223
Stream size                              : 1.22 GiB (92%)
Writing library                          : Lavc58.35.100

Audio
ID                                      : 1
Format                                  : MPEG Audio
Format version                          : Version 1
Format profile                          : Layer 3
Mode                                    : Joint stereo
Mode extension                          : MS Stereo
Codec ID                                : 55
Codec ID/Hint                            : MP3
Duration                                : 1h 53mn
Bit rate mode                            : Constant
Bit rate                                : 128 Kbps
Channel(s)                              : 2 channels
Sampling rate                            : 48.0 KHz
Compression mode                        : Lossy
Stream size                              : 104 MiB (8%)
Alignment                                : Aligned on interleaves
Interleave, duration                    : 24 ms (0.58 video frame)
Writing library                          : LAME3.99.5

Film Detayları


 Ve Sonra Dans Ettik

 Ve Sonra Dans Ettik

 Ve Sonra Dans Ettik


Film Fragmanı


Film Detayları



Zip Şifresi: filmbol.org Aşağıdaki butona tıklayarak kopyalabilirsiniz.



Uptobox ile indir

1Fichier ile indir

1Fichier'den İndiremiyor musun? Tıklayın!


Mega linki şuan da gizli. Kullanıma açmak için konuya yorum yapın ve ardından sayfayı yenileyin.

Mega


Bunun için üzgünüz ancak, bu linke sadece premium üyeler erişebilir.

Filmbol Cloud

Şuan Online!
Şuan Online!
BroserBros Kurucu Admin
*******
Admin

21.01.2021 Yönetici Notu:

Kırık linkler kontrol edildi, kaldırıldı ve yenilendi. Tüm linkler tamamen çalışır durumda.
Şuan Offine!
Şuan Offine!
sectechno Süper Üye
***
Super Üye

  • Konular5
  • Mesajlar102
  • Rep puanı 5
Teşekkürler BroserBros.İyi çalışmalar.


Hızlı Menü: